(Classical) Mozart, Beethoven, Schubert - Double Piano Concertos: K.242, 365,381, 521; WoO67; D599 (Arthur and Lucas Jussen, Academy of St. Martin in the Fields, Sir Neville Marriner) - 2015, FLAC (tracks+.cue) lossless


Статистика раздачи [Обновить пиров]
Размер:  379 MB   |    Зарегистрирован:  1 год 1 месяц   |    Скачан:  0 раз

Полного источника не было: Никогда

Личеров:  1  [  0 KB/s  ]   Подробная статистика пиров
 
   
 
 
 

[Цитировать]

Mozart, Beethoven, Schubert - Double Piano Concertos (Arthur and Lucas Jussen, Sir Neville Marriner)
Жанр: Classical
Год издания диска: 2015
Издатель (лейбл): Deutsche Grammophon
Номер по каталогу: 00289 4812132
Дата записи: 2015
Аудиокодек: FLAC
Тип рипа: tracks+.cue
Битрейт аудио: lossless
Продолжительность: CD1'01:06:32; CD2'00:31:16
Источник: скачано из сети
Наличие сканов в содержимом раздачи: да
Исполнители:
Arthur & Lucas Jussen, Piano
Academy of St. Martin in the Fields
Sir Neville Marriner, Conductor

Треклист:

CD1 Mozart Double Piano Concertos:
Wolfgang Amadeus Mozart
Concerto For 3 Pianos And Orchestra(No.7)in F, K.242"Lodron"
01. 1.Allegro (08:51)
02. 2.Adagio (08:40)
03. 3.Rondeau (05:55)
Concerto For 2 Pianos And Orchestra(No.10)in E-Flat,K.365
04. 1.Allegro (10:18)
05. 2.Andante (07:36)
06. 3.Rondeau (07:20)
Sonata for Piano duet in D, K. 381
07. 1. Allegro (05:20)
08. 2. Andante (08:30)
09. 3. Allegro molto (04:02)
CD2 - Bonus disc
Wolfgang Amadeus Mozart
01. Allegro From Sonata For Piano Duet In C Major, K.521 (09:13)
Ludwig van Beethoven
02. Acht Variationen uber ein Thema des Grafen von Waldstein WoO67 (08:07)
Franz Schubert
Four Polonaises Op.75 D599
03. No.1 in D Minor (03:12)
04. SNo.2 in B Flat Major (02:57)
05. No.3 in E Major (04:04)
06. No.4 in F Major (03:43)

-

LOGs:CD1:

X Lossless Decoder version 20141129a (148.2)
XLD extraction logfile from 2015-10-11 00:17:20 +0200
Various Artists / Mozart Double Piano Concertos
Used drive : OPTIARC DVD RW AD-5680H (revision 3AHB)Media type : Pressed CD
Ripper mode : XLD Secure RipperDisable audio cache : OK for the drive with a cache less than 1375KiBMake use of C2 pointers : NORead offset correction : 48Max retry count : 20Gap status : Analyzed, Appended (except HTOA)
TOC of the extracted CD Track | Start | Length | Start sector | End sector --------------------------------------------------------- 1 | 00:00:00 | 08:51:29 | 0 | 39853 2 | 08:51:29 | 08:40:02 | 39854 | 78855 3 | 17:31:31 | 05:54:69 | 78856 | 105474 4 | 23:26:25 | 10:18:26 | 105475 | 151850 5 | 33:44:51 | 07:36:28 | 151851 | 186078 6 | 41:21:04 | 07:20:28 | 186079 | 219106 7 | 48:41:32 | 05:20:16 | 219107 | 243122 8 | 54:01:48 | 08:29:41 | 243123 | 281338 9 | 62:31:14 | 04:01:52 | 281339 | 299465
AccurateRip Summary Disc not found in AccurateRip DB.
All Tracks Album gain : -1.91 dB Peak : 0.970123 Statistics Read error : 0 Jitter error (maybe fixed) : 0 Retry sector count : 150 Damaged sector count : 0
Track 01 Filename : /Volumes/backfire/XLD/Mozart Double Piano Concertos (2015) [FLAC]/01 - Concerto For 3 Pianos And Orchestra(No.7)in F, K.242Lodron1.Allegro.flac /Volumes/backfire/XLD/Mozart Double Piano Concertos (2015) [MP3 320]/01 - Concerto For 3 Pianos And Orchestra(No.7)in F, K.242Lodron1.Allegro.mp3 /Volumes/backfire/XLD/Mozart Double Piano Concertos (2015) [MP3 V0]/01 - Concerto For 3 Pianos And Orchestra(No.7)in F, K.242Lodron1.Allegro.mp3 /Volumes/backfire/XLD/Mozart Double Piano Concertos (2015) [MP3 V2]/01 - Concerto For 3 Pianos And Orchestra(No.7)in F, K.242Lodron1.Allegro.mp3 Pre-gap length : 00:02:00
Track gain : -2.70 dB Peak : 0.969543 CRC32 hash (test run) : 4C2D9A50 CRC32 hash : 4C2D9A50 CRC32 hash (skip zero) : C5F3198D AccurateRip v1 signature : 0EAA6E97 AccurateRip v2 signature : 01895DBB ->Track not present in AccurateRip database. Statistics Read error : 0 Jitter error (maybe fixed) : 0 Retry sector count : 0 Damaged sector count : 0
Track 02 Filename : /Volumes/backfire/XLD/Mozart Double Piano Concertos (2015) [FLAC]/02 - Concerto For 3 Pianos And Orchestra(No.7)in F, K.242Lodron2.Adagio.flac /Volumes/backfire/XLD/Mozart Double Piano Concertos (2015) [MP3 320]/02 - Concerto For 3 Pianos And Orchestra(No.7)in F, K.242Lodron2.Adagio.mp3 /Volumes/backfire/XLD/Mozart Double Piano Concertos (2015) [MP3 V0]/02 - Concerto For 3 Pianos And Orchestra(No.7)in F, K.242Lodron2.Adagio.mp3 /Volumes/backfire/XLD/Mozart Double Piano Concertos (2015) [MP3 V2]/02 - Concerto For 3 Pianos And Orchestra(No.7)in F, K.242Lodron2.Adagio.mp3
Track gain : 0.28 dB Peak : 0.790527 CRC32 hash (test run) : E5C33DA7 CRC32 hash : E5C33DA7 CRC32 hash (skip zero) : D72A11D7 AccurateRip v1 signature : 70FF9C27 AccurateRip v2 signature : 99FA5681 ->Track not present in AccurateRip database. Statistics Read error : 0 Jitter error (maybe fixed) : 0 Retry sector count : 0 Damaged sector count : 0
Track 03 Filename : /Volumes/backfire/XLD/Mozart Double Piano Concertos (2015) [FLAC]/03 - Concerto For 3 Pianos And Orchestra(No.7)in F, K.242Lodron3.Rondeau.flac /Volumes/backfire/XLD/Mozart Double Piano Concertos (2015) [MP3 320]/03 - Concerto For 3 Pianos And Orchestra(No.7)in F, K.242Lodron3.Rondeau.mp3 /Volumes/backfire/XLD/Mozart Double Piano Concertos (2015) [MP3 V0]/03 - Concerto For 3 Pianos And Orchestra(No.7)in F, K.242Lodron3.Rondeau.mp3 /Volumes/backfire/XLD/Mozart Double Piano Concertos (2015) [MP3 V2]/03 - Concerto For 3 Pianos And Orchestra(No.7)in F, K.242Lodron3.Rondeau.mp3
Track gain : -1.42 dB Peak : 0.947479 CRC32 hash (test run) : 22E19855 CRC32 hash : 22E19855 CRC32 hash (skip zero) : 91398841 AccurateRip v1 signature : 7BF566DE AccurateRip v2 signature : 58DEF2D4 ->Track not present in AccurateRip database. Statistics Read error : 0 Jitter error (maybe fixed) : 0 Retry sector count : 0 Damaged sector count : 0
Track 04 Filename : /Volumes/backfire/XLD/Mozart Double Piano Concertos (2015) [FLAC]/04 - Concerto For 2 Pianos And Orchestra(No.10)in E-Flat,K.365-1.Allegro.flac /Volumes/backfire/XLD/Mozart Double Piano Concertos (2015) [MP3 320]/04 - Concerto For 2 Pianos And Orchestra(No.10)in E-Flat,K.365-1.Allegro.mp3 /Volumes/backfire/XLD/Mozart Double Piano Concertos (2015) [MP3 V0]/04 - Concerto For 2 Pianos And Orchestra(No.10)in E-Flat,K.365-1.Allegro.mp3 /Volumes/backfire/XLD/Mozart Double Piano Concertos (2015) [MP3 V2]/04 - Concerto For 2 Pianos And Orchestra(No.10)in E-Flat,K.365-1.Allegro.mp3
Track gain : -2.56 dB Peak : 0.969513 CRC32 hash (test run) : 7245EF74 CRC32 hash : 7245EF74 CRC32 hash (skip zero) : 1147C0D2 AccurateRip v1 signature : 81238B90 AccurateRip v2 signature : 609FE8B3 ->Track not present in AccurateRip database. Statistics Read error : 0 Jitter error (maybe fixed) : 0 Retry sector count : 150 Damaged sector count : 0
Track 05 Filename : /Volumes/backfire/XLD/Mozart Double Piano Concertos (2015) [FLAC]/05 - Concerto For 2 Pianos And Orchestra(No.10)in E-Flat,K.365-2.Andante.flac /Volumes/backfire/XLD/Mozart Double Piano Concertos (2015) [MP3 320]/05 - Concerto For 2 Pianos And Orchestra(No.10)in E-Flat,K.365-2.Andante.mp3 /Volumes/backfire/XLD/Mozart Double Piano Concertos (2015) [MP3 V0]/05 - Concerto For 2 Pianos And Orchestra(No.10)in E-Flat,K.365-2.Andante.mp3 /Volumes/backfire/XLD/Mozart Double Piano Concertos (2015) [MP3 V2]/05 - Concerto For 2 Pianos And Orchestra(No.10)in E-Flat,K.365-2.Andante.mp3
Track gain : 1.69 dB Peak : 0.894928 CRC32 hash (test run) : 54347A43 CRC32 hash : 54347A43 CRC32 hash (skip zero) : 551B6C77 AccurateRip v1 signature : 06D734CE AccurateRip v2 signature : 1B642BE2 ->Track not present in AccurateRip database. Statistics Read error : 0 Jitter error (maybe fixed) : 0 Retry sector count : 0 Damaged sector count : 0
Track 06 Filename : /Volumes/backfire/XLD/Mozart Double Piano Concertos (2015) [FLAC]/06 - Concerto For 2 Pianos And Orchestra(No.10)in E-Flat,K.365-3.Rondeau.flac /Volumes/backfire/XLD/Mozart Double Piano Concertos (2015) [MP3 320]/06 - Concerto For 2 Pianos And Orchestra(No.10)in E-Flat,K.365-3.Rondeau.mp3 /Volumes/backfire/XLD/Mozart Double Piano Concertos (2015) [MP3 V0]/06 - Concerto For 2 Pianos And Orchestra(No.10)in E-Flat,K.365-3.Rondeau.mp3 /Volumes/backfire/XLD/Mozart Double Piano Concertos (2015) [MP3 V2]/06 - Concerto For 2 Pianos And Orchestra(No.10)in E-Flat,K.365-3.Rondeau.mp3
Track gain : -3.34 dB Peak : 0.970062 CRC32 hash (test run) : 7A1A0CC5 CRC32 hash : 7A1A0CC5 CRC32 hash (skip zero) : 51C9FD80 AccurateRip v1 signature : 2C4150AB AccurateRip v2 signature : 09DE69E8 ->Track not present in AccurateRip database. Statistics Read error : 0 Jitter error (maybe fixed) : 0 Retry sector count : 0 Damaged sector count : 0
Track 07 Filename : /Volumes/backfire/XLD/Mozart Double Piano Concertos (2015) [FLAC]/07 - Sonata for Piano duet in D, K. 381- 1. Allegro.flac /Volumes/backfire/XLD/Mozart Double Piano Concertos (2015) [MP3 320]/07 - Sonata for Piano duet in D, K. 381- 1. Allegro.mp3 /Volumes/backfire/XLD/Mozart Double Piano Concertos (2015) [MP3 V0]/07 - Sonata for Piano duet in D, K. 381- 1. Allegro.mp3 /Volumes/backfire/XLD/Mozart Double Piano Concertos (2015) [MP3 V2]/07 - Sonata for Piano duet in D, K. 381- 1. Allegro.mp3
Track gain : -2.34 dB Peak : 0.970123 CRC32 hash (test run) : 3FD9B59E CRC32 hash : 3FD9B59E CRC32 hash (skip zero) : D823C095 AccurateRip v1 signature : BF0C8212 AccurateRip v2 signature : BB888258 ->Track not present in AccurateRip database. Statistics Read error : 0 Jitter error (maybe fixed) : 0 Retry sector count : 0 Damaged sector count : 0
Track 08 Filename : /Volumes/backfire/XLD/Mozart Double Piano Concertos (2015) [FLAC]/08 - Sonata for Piano duet in D, K. 381- 2. Andante.flac /Volumes/backfire/XLD/Mozart Double Piano Concertos (2015) [MP3 320]/08 - Sonata for Piano duet in D, K. 381- 2. Andante.mp3 /Volumes/backfire/XLD/Mozart Double Piano Concertos (2015) [MP3 V0]/08 - Sonata for Piano duet in D, K. 381- 2. Andante.mp3 /Volumes/backfire/XLD/Mozart Double Piano Concertos (2015) [MP3 V2]/08 - Sonata for Piano duet in D, K. 381- 2. Andante.mp3
Track gain : 1.57 dB Peak : 0.596375 CRC32 hash (test run) : FCDED345 CRC32 hash : FCDED345 CRC32 hash (skip zero) : EEA0EF15 AccurateRip v1 signature : 18AB0332 AccurateRip v2 signature : 7C613D56 ->Track not present in AccurateRip database. Statistics Read error : 0 Jitter error (maybe fixed) : 0 Retry sector count : 0 Damaged sector count : 0
Track 09 Filename : /Volumes/backfire/XLD/Mozart Double Piano Concertos (2015) [FLAC]/09 - Sonata for Piano duet in D, K. 381- 3. Allegro molto.flac /Volumes/backfire/XLD/Mozart Double Piano Concertos (2015) [MP3 320]/09 - Sonata for Piano duet in D, K. 381- 3. Allegro molto.mp3 /Volumes/backfire/XLD/Mozart Double Piano Concertos (2015) [MP3 V0]/09 - Sonata for Piano duet in D, K. 381- 3. Allegro molto.mp3 /Volumes/backfire/XLD/Mozart Double Piano Concertos (2015) [MP3 V2]/09 - Sonata for Piano duet in D, K. 381- 3. Allegro molto.mp3
Track gain : -2.48 dB Peak : 0.968536 CRC32 hash (test run) : 060B5126 CRC32 hash : 060B5126 CRC32 hash (skip zero) : F2AEC5CB AccurateRip v1 signature : 1B511B6C AccurateRip v2 signature : 4923BE15 ->Track not present in AccurateRip database. Statistics Read error : 0 Jitter error (maybe fixed) : 0 Retry sector count : 0 Damaged sector count : 0
No errors occurred
End of status report
-----BEGIN XLD SIGNATURE-----anQO61oSmbJkq5Ja2S6.VCJV0jPu6zXXp1BDOeOrQLFLNkFH_pglwltREOvjj2HOsUyhnzAV7WMtVOPzhXwFYX7sflgIWys8ciSCYq4-----END XLD SIGNATURE-----

CD2:

X Lossless Decoder version 20141129a (148.2)
XLD extraction logfile from 2015-10-10 19:33:13 +0200
Lucas Jussen, Arthur Jussen / Mozart Beethoven Schubert Piano Duets
Used drive : OPTIARC DVD RW AD-5680H (revision 3AHB)Media type : Pressed CD
Ripper mode : XLD Secure RipperDisable audio cache : OK for the drive with a cache less than 1375KiBMake use of C2 pointers : NORead offset correction : 48Max retry count : 20Gap status : Analyzed, Appended (except HTOA)
TOC of the extracted CDTrack | Start | Length | Start sector | End sector---------------------------------------------------------1 | 00:00:00 | 09:13:10 | 0 | 414842 | 09:13:10 | 08:06:73 | 41485 | 780073 | 17:20:08 | 03:12:15 | 78008 | 924224 | 20:32:23 | 02:57:18 | 92423 | 1057155 | 23:29:41 | 04:04:18 | 105716 | 1240336 | 27:33:59 | 03:42:55 | 124034 | 140738
AccurateRip SummaryDisc not found in AccurateRip DB.
All TracksAlbum gain : 3.16 dBPeak : 0.998840StatisticsRead error : 0Jitter error (maybe fixed) : 0Retry sector count : 0Damaged sector count : 0
Track 01Filename : /Volumes/backfire/XLD/Mozart Beethoven Schubert Piano Duets (2015) [FLAC]/01 - Mozart-Allegro From Sonata For Piano Duet In C Major, K.521.flac/Volumes/backfire/XLD/Mozart Beethoven Schubert Piano Duets (2015) [MP3 320]/01 - Mozart-Allegro From Sonata For Piano Duet In C Major, K.521.mp3/Volumes/backfire/XLD/Mozart Beethoven Schubert Piano Duets (2015) [MP3 V0]/01 - Mozart-Allegro From Sonata For Piano Duet In C Major, K.521.mp3/Volumes/backfire/XLD/Mozart Beethoven Schubert Piano Duets (2015) [MP3 V2]/01 - Mozart-Allegro From Sonata For Piano Duet In C Major, K.521.mp3Pre-gap length : 00:02:00
Track gain : 2.20 dBPeak : 0.675140CRC32 hash (test run) : 968511D3CRC32 hash : 968511D3CRC32 hash (skip zero) : D23BAA10AccurateRip v1 signature : D9873677AccurateRip v2 signature : E9F42E6D->Track not present in AccurateRip database.StatisticsRead error : 0Jitter error (maybe fixed) : 0Retry sector count : 0Damaged sector count : 0
Track 02Filename : /Volumes/backfire/XLD/Mozart Beethoven Schubert Piano Duets (2015) [FLAC]/02 - Beethoven-Acht Variationen ûber ein Thema des Grafen von Waldstein WoO67.flac/Volumes/backfire/XLD/Mozart Beethoven Schubert Piano Duets (2015) [MP3 320]/02 - Beethoven-Acht Variationen ûber ein Thema des Grafen von Waldstein WoO67.mp3/Volumes/backfire/XLD/Mozart Beethoven Schubert Piano Duets (2015) [MP3 V0]/02 - Beethoven-Acht Variationen ûber ein Thema des Grafen von Waldstein WoO67.mp3/Volumes/backfire/XLD/Mozart Beethoven Schubert Piano Duets (2015) [MP3 V2]/02 - Beethoven-Acht Variationen ûber ein Thema des Grafen von Waldstein WoO67.mp3Pre-gap length : 00:05:31
Track gain : 3.69 dBPeak : 0.998840CRC32 hash (test run) : 60F15915CRC32 hash : 60F15915CRC32 hash (skip zero) : 29E8D48DAccurateRip v1 signature : CF5FF35DAccurateRip v2 signature : D5C36FE7->Track not present in AccurateRip database.StatisticsRead error : 0Jitter error (maybe fixed) : 0Retry sector count : 0Damaged sector count : 0
Track 03Filename : /Volumes/backfire/XLD/Mozart Beethoven Schubert Piano Duets (2015) [FLAC]/03 - Schubert-Four Polonaises Op.75 D599, No.1 in D Minor.flac/Volumes/backfire/XLD/Mozart Beethoven Schubert Piano Duets (2015) [MP3 320]/03 - Schubert-Four Polonaises Op.75 D599, No.1 in D Minor.mp3/Volumes/backfire/XLD/Mozart Beethoven Schubert Piano Duets (2015) [MP3 V0]/03 - Schubert-Four Polonaises Op.75 D599, No.1 in D Minor.mp3/Volumes/backfire/XLD/Mozart Beethoven Schubert Piano Duets (2015) [MP3 V2]/03 - Schubert-Four Polonaises Op.75 D599, No.1 in D Minor.mp3Pre-gap length : 00:06:05
Track gain : 2.06 dBPeak : 0.772888CRC32 hash (test run) : EDA68853CRC32 hash : EDA68853CRC32 hash (skip zero) : 138D53F3AccurateRip v1 signature : D17A7353AccurateRip v2 signature : 44A71A1B->Track not present in AccurateRip database.StatisticsRead error : 0Jitter error (maybe fixed) : 0Retry sector count : 0Damaged sector count : 0
Track 04Filename : /Volumes/backfire/XLD/Mozart Beethoven Schubert Piano Duets (2015) [FLAC]/04 - Schubert-Four Polonaises Op.75 D599, No.2 in B Flat Major.flac/Volumes/backfire/XLD/Mozart Beethoven Schubert Piano Duets (2015) [MP3 320]/04 - Schubert-Four Polonaises Op.75 D599, No.2 in B Flat Major.mp3/Volumes/backfire/XLD/Mozart Beethoven Schubert Piano Duets (2015) [MP3 V0]/04 - Schubert-Four Polonaises Op.75 D599, No.2 in B Flat Major.mp3/Volumes/backfire/XLD/Mozart Beethoven Schubert Piano Duets (2015) [MP3 V2]/04 - Schubert-Four Polonaises Op.75 D599, No.2 in B Flat Major.mp3
Track gain : 4.81 dBPeak : 0.523438CRC32 hash (test run) : 98C1517ECRC32 hash : 98C1517ECRC32 hash (skip zero) : 45813F21AccurateRip v1 signature : 272C08B7AccurateRip v2 signature : 12D1D315->Track not present in AccurateRip database.StatisticsRead error : 0Jitter error (maybe fixed) : 0Retry sector count : 0Damaged sector count : 0
Track 05Filename : /Volumes/backfire/XLD/Mozart Beethoven Schubert Piano Duets (2015) [FLAC]/05 - Schubert-Four Polonaises Op.75 D599, No.3 in E Major.flac/Volumes/backfire/XLD/Mozart Beethoven Schubert Piano Duets (2015) [MP3 320]/05 - Schubert-Four Polonaises Op.75 D599, No.3 in E Major.mp3/Volumes/backfire/XLD/Mozart Beethoven Schubert Piano Duets (2015) [MP3 V0]/05 - Schubert-Four Polonaises Op.75 D599, No.3 in E Major.mp3/Volumes/backfire/XLD/Mozart Beethoven Schubert Piano Duets (2015) [MP3 V2]/05 - Schubert-Four Polonaises Op.75 D599, No.3 in E Major.mp3
Track gain : 3.96 dBPeak : 0.461517CRC32 hash (test run) : D12D3F8DCRC32 hash : D12D3F8DCRC32 hash (skip zero) : 9297B5D1AccurateRip v1 signature : 7F733430AccurateRip v2 signature : 66ABE1B9->Track not present in AccurateRip database.StatisticsRead error : 0Jitter error (maybe fixed) : 0Retry sector count : 0Damaged sector count : 0
Track 06Filename : /Volumes/backfire/XLD/Mozart Beethoven Schubert Piano Duets (2015) [FLAC]/06 - Schubert-Four Polonaises Op.75 D599, No.4 in F Major.flac/Volumes/backfire/XLD/Mozart Beethoven Schubert Piano Duets (2015) [MP3 320]/06 - Schubert-Four Polonaises Op.75 D599, No.4 in F Major.mp3/Volumes/backfire/XLD/Mozart Beethoven Schubert Piano Duets (2015) [MP3 V0]/06 - Schubert-Four Polonaises Op.75 D599, No.4 in F Major.mp3/Volumes/backfire/XLD/Mozart Beethoven Schubert Piano Duets (2015) [MP3 V2]/06 - Schubert-Four Polonaises Op.75 D599, No.4 in F Major.mp3
Track gain : 5.85 dBPeak : 0.562714CRC32 hash (test run) : 12E77CFECRC32 hash : 12E77CFECRC32 hash (skip zero) : 55C3F716AccurateRip v1 signature : 6328F029AccurateRip v2 signature : 9E8CF1A0->Track not present in AccurateRip database.StatisticsRead error : 0Jitter error (maybe fixed) : 0Retry sector count : 0Damaged sector count : 0
No errors occurred
End of status report
-----BEGIN XLD SIGNATURE-----r8_EowbG3WkFV6qIsfVX8y6n6HBwzMIf6KMG7SeQyDQYRC4_OmMwRuRmMLDWJArBDLuHzEeFTdIcDwQemuUSjfORcNEr9mboIYWQVOu-----END XLD SIGNATURE-----

LOG (.CUE):CD1:

TITLE "Mozart Double Piano Concertos"CATALOG 0028948121304REM GENRE "Classical"REM DATE "2015"REM DISCNUMBER 1REM TOTALDISCS 1REM DISCID 6C0F9809REM REPLAYGAIN_ALBUM_GAIN -1.91 dBREM REPLAYGAIN_ALBUM_PEAK 0.970123REM COMPILATION TRUEFILE "01 - Concerto For 3 Pianos And Orchestra(No.7)in F, K.242Lodron1.Allegro.flac" WAVE TRACK 01 AUDIO TITLE "Concerto For 3 Pianos And Orchestra(No.7)in F, K.242"Lodron"1.Allegro" PERFORMER "Lucas Jussen, Arthur Jussen, Academy of ST.Martin in the Fields: Neville Marriner" SONGWRITER "Wolfgang Amadeus Mozart" ISRC NLK4J1500001 REM REPLAYGAIN_TRACK_GAIN -2.70 dB REM REPLAYGAIN_TRACK_PEAK 0.969543 INDEX 01 00:00:00FILE "02 - Concerto For 3 Pianos And Orchestra(No.7)in F, K.242Lodron2.Adagio.flac" WAVE TRACK 02 AUDIO TITLE "Concerto For 3 Pianos And Orchestra(No.7)in F, K.242"Lodron"2.Adagio" PERFORMER "Lucas Jussen, Arthur Jussen, Academy of ST.Martin in the Fields: Neville Marriner" SONGWRITER "Wolfgang Amadeus Mozart" ISRC NLK4J1500002 REM REPLAYGAIN_TRACK_GAIN 0.28 dB REM REPLAYGAIN_TRACK_PEAK 0.790527 INDEX 01 00:00:00FILE "03 - Concerto For 3 Pianos And Orchestra(No.7)in F, K.242Lodron3.Rondeau.flac" WAVE TRACK 03 AUDIO TITLE "Concerto For 3 Pianos And Orchestra(No.7)in F, K.242"Lodron"3.Rondeau" PERFORMER "Lucas Jussen, Arthur Jussen, Academy of ST.Martin in the Fields: Neville Marriner" SONGWRITER "Wolfgang Amadeus Mozart" ISRC NLK4J1500003 REM REPLAYGAIN_TRACK_GAIN -1.42 dB REM REPLAYGAIN_TRACK_PEAK 0.947479 INDEX 01 00:00:00FILE "04 - Concerto For 2 Pianos And Orchestra(No.10)in E-Flat,K.365-1.Allegro.flac" WAVE TRACK 04 AUDIO TITLE "Concerto For 2 Pianos And Orchestra(No.10)in E-Flat,K.365-1.Allegro" PERFORMER "Lucas Jussen, Arthur Jussen, Academy of ST.Martin in the Fields: Neville Marriner" SONGWRITER "Wolfgang Amadeus Mozart" ISRC NLK4J1500004 REM REPLAYGAIN_TRACK_GAIN -2.56 dB REM REPLAYGAIN_TRACK_PEAK 0.969513 INDEX 01 00:00:00FILE "05 - Concerto For 2 Pianos And Orchestra(No.10)in E-Flat,K.365-2.Andante.flac" WAVE TRACK 05 AUDIO TITLE "Concerto For 2 Pianos And Orchestra(No.10)in E-Flat,K.365-2.Andante" PERFORMER "Lucas Jussen, Arthur Jussen, Academy of ST.Martin in the Fields: Neville Marriner" SONGWRITER "Wolfgang Amadeus Mozart" ISRC NLK4J1500005 REM REPLAYGAIN_TRACK_GAIN 1.69 dB REM REPLAYGAIN_TRACK_PEAK 0.894928 INDEX 01 00:00:00FILE "06 - Concerto For 2 Pianos And Orchestra(No.10)in E-Flat,K.365-3.Rondeau.flac" WAVE TRACK 06 AUDIO TITLE "Concerto For 2 Pianos And Orchestra(No.10)in E-Flat,K.365-3.Rondeau" PERFORMER "Lucas Jussen, Arthur Jussen, Academy of ST.Martin in the Fields: Neville Marriner" SONGWRITER "Wolfgang Amadeus Mozart" ISRC NLK4J1500006 REM REPLAYGAIN_TRACK_GAIN -3.34 dB REM REPLAYGAIN_TRACK_PEAK 0.970062 INDEX 01 00:00:00FILE "07 - Sonata for Piano duet in D, K. 381- 1. Allegro.flac" WAVE TRACK 07 AUDIO TITLE "Sonata for Piano duet in D, K. 381- 1. Allegro" PERFORMER "Lucas Jussen, Arthur Jussen" SONGWRITER "Wolfgang Amadeus Mozart" ISRC NLK4J1500007 REM REPLAYGAIN_TRACK_GAIN -2.34 dB REM REPLAYGAIN_TRACK_PEAK 0.970123 INDEX 01 00:00:00FILE "08 - Sonata for Piano duet in D, K. 381- 2. Andante.flac" WAVE TRACK 08 AUDIO TITLE "Sonata for Piano duet in D, K. 381- 2. Andante" PERFORMER "Lucas Jussen, Arthur Jussen" SONGWRITER "Wolfgang Amadeus Mozart" ISRC NLK4J1500008 REM REPLAYGAIN_TRACK_GAIN 1.57 dB REM REPLAYGAIN_TRACK_PEAK 0.596375 INDEX 01 00:00:00FILE "09 - Sonata for Piano duet in D, K. 381- 3. Allegro molto.flac" WAVE TRACK 09 AUDIO TITLE "Sonata for Piano duet in D, K. 381- 3. Allegro molto" PERFORMER "Lucas Jussen, Arthur Jussen" SONGWRITER "Wolfgang Amadeus Mozart" ISRC NLK4J1500009 REM REPLAYGAIN_TRACK_GAIN -2.48 dB REM REPLAYGAIN_TRACK_PEAK 0.968536 INDEX 01 00:00:00
/spoiler]

CD2:

TITLE "Mozart Beethoven Schubert Piano Duets"PERFORMER "Lucas Jussen, Arthur Jussen"CATALOG 0028948121311REM DATE "2015"REM DISCNUMBER 1REM TOTALDISCS 1REM DISCID 3A075406REM REPLAYGAIN_ALBUM_GAIN 3.16 dBREM REPLAYGAIN_ALBUM_PEAK 0.998840FILE "01 - Mozart-Allegro From Sonata For Piano Duet In C Major, K.521.flac" WAVE TRACK 01 AUDIO TITLE "Mozart-Allegro From Sonata For Piano Duet In C Major, K.521" SONGWRITER "Wolfgang Amadeus Mozart" ISRC NLK4J1500010 REM REPLAYGAIN_TRACK_GAIN 2.20 dB REM REPLAYGAIN_TRACK_PEAK 0.675140 INDEX 01 00:00:00 TRACK 02 AUDIO TITLE "Beethoven-Acht Variationen ûber ein Thema des Grafen von Waldstein WoO67" SONGWRITER "Ludwig van Beethoven" ISRC NLUM71000128 REM REPLAYGAIN_TRACK_GAIN 3.69 dB REM REPLAYGAIN_TRACK_PEAK 0.998840 INDEX 00 09:07:54FILE "02 - Beethoven-Acht Variationen ûber ein Thema des Grafen von Waldstein WoO67.flac" WAVE INDEX 01 00:00:00 TRACK 03 AUDIO TITLE "Schubert-Four Polonaises Op.75 D599, No.1 in D Minor" SONGWRITER "Franz Schubert" ISRC NLUM71100173 REM REPLAYGAIN_TRACK_GAIN 2.06 dB REM REPLAYGAIN_TRACK_PEAK 0.772888 INDEX 00 08:00:68FILE "03 - Schubert-Four Polonaises Op.75 D599, No.1 in D Minor.flac" WAVE INDEX 01 00:00:00FILE "04 - Schubert-Four Polonaises Op.75 D599, No.2 in B Flat Major.flac" WAVE TRACK 04 AUDIO TITLE "Schubert-Four Polonaises Op.75 D599, No.2 in B Flat Major" SONGWRITER "Franz Schubert" ISRC NLUM71100174 REM REPLAYGAIN_TRACK_GAIN 4.81 dB REM REPLAYGAIN_TRACK_PEAK 0.523438 INDEX 01 00:00:00FILE "05 - Schubert-Four Polonaises Op.75 D599, No.3 in E Major.flac" WAVE TRACK 05 AUDIO TITLE "Schubert-Four Polonaises Op.75 D599, No.3 in E Major" SONGWRITER "Franz Schubert" ISRC NLUM71100175 REM REPLAYGAIN_TRACK_GAIN 3.96 dB REM REPLAYGAIN_TRACK_PEAK 0.461517 INDEX 01 00:00:00FILE "06 - Schubert-Four Polonaises Op.75 D599, No.4 in F Major.flac" WAVE TRACK 06 AUDIO TITLE "Schubert-Four Polonaises Op.75 D599, No.4 in F Major" SONGWRITER "Franz Schubert" ISRC NLUM71100176 REM REPLAYGAIN_TRACK_GAIN 5.85 dB REM REPLAYGAIN_TRACK_PEAK 0.562714 INDEX 01 00:00:00
/spoiler]
[teatrix.ru].t9618.torrent 
Торрент: Зарегистрирован [ 2015-10-23 17:11 ] · 74AAEDDFFABC9224CAE36375C1165E58FD4EAE48

Скачать .torrent

Скачать

19 KB

Статус: проверено
Скачан: 0 раз
Размер: 379 MB
terms.php



Быстрый ответ

Имя:

      
Для отправки сообщений необходимо включить JavaScript
Показать сообщения:    

Текущее время: 05-Дек 21:40

Часовой пояс: UTC + 3


Вы можете начинать темы
Вы можете отвечать на сообщения
Вы не можете редактировать свои сообщения
Вы не можете удалять свои сообщения
Вы не можете голосовать в опросах
Вы не можете прикреплять файлы к сообщениям
Вы можете скачивать файлы