(Classical/Minimalism) John Adams - Absolute Jest (St. Lawrence String Quartet & Michael Tilson Thomas) & Grand Pianola Music (Orli Shaham, Marc-Andre Hamelin, Synergy Vocals & John Adams) - 2015, FLAC (image+.cue) lossless


Статистика раздачи [Обновить пиров]
Размер:  280 MB   |    Зарегистрирован:  1 год 1 месяц   |    Скачан:  2 раза

Полного источника не было: 19 дней

Личеров:  1  [  0 KB/s  ]   Подробная статистика пиров
 
   
 
 
 

[Цитировать]

John Adams - Absolute Jest & Grand Pianola Music
Жанр: Classical/Minimalism
Страна-производитель диска: USA
Год издания диска: 2015
Издатель (лейбл): SFSMedia
Номер по каталогу: 21938-0063-2
Дата записи: V.13 & I.15
Аудиокодек: FLAC
Тип рипа: image+.cue
Битрейт аудио: lossless
Продолжительность: 57'38"
Источник: собственный рип
Наличие сканов в содержимом раздачи: да
Треклист:
Absolute Jest
1. Beginning
2. Presto
3. Lo stesso tempo
4. Meno mosso
5. Vivacissimo
6. Prestissimo
St. Lawrence String Quartet
San Francisco Symphony
Michael Tilson Thomas

Grand Pianola Music
7. Part 1
8. Part 1 - Slow
9. Part 2, On the Dominant Divide
Orli Shaham, piano
Marc-Andre Hamelin, Piano
Synergy Vocals
San Francisco Symphony
John Adams

-

Лог создания рипа

Exact Audio Copy V1.0 beta 4 from 7. December 2014
EAC extraction logfile from 6. October 2015, 20:01
John Adams / Absolute Jest & Grand Pianola Music
Used drive : TSSTcorpDVDWBD TS-LB23A Adapter: 1 ID: 0
Read mode : SecureUtilize accurate stream : YesDefeat audio cache : YesMake use of C2 pointers : No
Read offset correction : 6Overread into Lead-In and Lead-Out : NoFill up missing offset samples with silence : YesDelete leading and trailing silent blocks : NoNull samples used in CRC calculations : YesUsed interface : Native Win32 interface for Win NT & 2000
Used output format : User Defined EncoderSelected bitrate : 128 kBit/sQuality : HighAdd ID3 tag : YesCommand line compressor : C:\Program Files (x86)\Exact Audio Copy\Flac\flac.exeAdditional command line options : -T "COMMENT=Ripped by GFox" -V -8 %source%
TOC of the extracted CD
Track | Start | Length | Start sector | End sector --------------------------------------------------------- 1 | 0:00.00 | 10:35.73 | 0 | 47697 2 | 10:35.73 | 3:30.38 | 47698 | 63485 3 | 14:06.36 | 1:07.43 | 63486 | 68553 4 | 15:14.04 | 3:18.09 | 68554 | 83412 5 | 18:32.13 | 1:49.41 | 83413 | 91628 6 | 20:21.54 | 5:19.26 | 91629 | 115579 7 | 25:41.05 | 15:24.71 | 115580 | 184950 8 | 41:06.01 | 7:45.24 | 184951 | 219849 9 | 48:51.25 | 8:47.43 | 219850 | 259417
Range status and errors
Selected range
Filename D:\Downloads\John Adams - Absolute Jest & Grand Pianola Music.wav
Peak level 100.0 % Extraction speed 1.8 X Range quality 100.0 % Test CRC 45CE3A20 Copy CRC 45CE3A20 Copy OK
No errors occurred
AccurateRip summary
Track 1 not present in databaseTrack 2 not present in databaseTrack 3 not present in databaseTrack 4 not present in databaseTrack 5 not present in databaseTrack 6 not present in databaseTrack 7 not present in databaseTrack 8 not present in databaseTrack 9 not present in database
None of the tracks are present in the AccurateRip database
End of status report
==== Log checksum 2F4933BA8D4F7605D110228CAE1105FA7DBEEA8039AD7E74C512A4E072DDBDB6 ====
-Доп. информация: Между двумя представленными на диске произведениями 30 лет, но оба они представляют взгляд на романтическую музыку через призму минимализма: Grand Pianola Music представляет свой слегка ироничный взгляд на 5-ый Императорский фортепианный концерт Бетховена, Absolute Jest, несмотря на своё легкомысленное название ("Полный прикол") представляет собой постмодернистское переосмысление музыки Бетховена - солирующий струнный квартет играет фрагменты из Большой фуги, 14 и 16 струнных квартетов в то время, как оркестр играет реминисценций из 7 и 9 симфоний маэстро, пересказанных современным языком музыки Адамса.-
[teatrix.ru].t9619.torrent 
Торрент: Зарегистрирован [ 2015-10-23 17:11 ] · F66060828DC9D866A3D2FB59CA7C4835CA179DC8

Скачать .torrent

Скачать

12 KB

Статус: проверено
Скачан: 2 раз
Размер: 280 MB
terms.php



Быстрый ответ

Имя:

      
Для отправки сообщений необходимо включить JavaScript
Показать сообщения:    

Текущее время: 04-Дек 17:18

Часовой пояс: UTC + 3


Вы можете начинать темы
Вы можете отвечать на сообщения
Вы не можете редактировать свои сообщения
Вы не можете удалять свои сообщения
Вы не можете голосовать в опросах
Вы не можете прикреплять файлы к сообщениям
Вы можете скачивать файлы