(Classical) J.S.Bach - Double Concerto BWV1060R; Violin Concerto BWV1042; Sonata No.2 for Solo Violin BWV1003 • C.P.E.Bach - Trio Sonata Wq143 - Lisa Batiashvili, Leleux, Pahud, Klinger, Kofler - 2014, FLAC (image+.cue) lossless


Статистика раздачи [Обновить пиров]
Размер:  336 MB   |    Зарегистрирован:  1 год 1 месяц   |    Скачан:  0 раз

Полного источника не было: Никогда

Личеров:  1  [  0 KB/s  ]   Подробная статистика пиров
 
   
 
 
 

[Цитировать]

J.S.Bach - Double Concerto BWV1060R; Violin Concerto BWV1042; Sonata No.2 for Solo Violin BWV1003 • C.P.E.Bach - Trio Sonata Wq143 - Lisa Batiashvili, Leleux, Pahud, Klinger, Kofler
Жанр: Classical
Страна-производитель диска: Germany
Год издания диска: 2014
Издатель (лейбл): Deutsche Grammophon
Дата записи: 2013, 2014
Аудиокодек: FLAC
Тип рипа: image+.cue
Битрейт аудио: lossless
Продолжительность: 69:19
Источник: собственный рип
Наличие сканов в содержимом раздачи: да
Треклист:
Johann Sebastian Bach
[1]-[3] Double Concerto for Violin, Oboe, Strings and Continuo in C minor, BWV 1060R
[4] Sinfonia in F major
from the Cantata "Ich steh mit einem Fuss im Grabe", BWV 156
for violin, strings and continuo
[5]-[7] Concerto for Violin, Strings and Continuo in E major, BWV 1042
[8]-[11] Sonata No.2 for Solo Violin in A major, BWV 1003
Carl Philipp Emanuel Bach
[12]-[14] Trio Sonata for Flute, Violin and Continuo in B minor, Wq 143
Johann Sebastian Bach
[15] "Erbarme dich, mein Gott" Aria from St. Matthew Passion, BWV 244
for contralto (performed on oboe d'amore), violin solo, strings and continuo
Исполнители:
Lisa Batiashvili violin
François Leleux oboe & oboe d'amore
Emmanuel Pahud flute
Sebastian Klinger cello (Wq 143)
Peter Kofler harpsichord (Wq 143)
Kammerorchester des Symphonieorchesters des Bayerischen Rundfunks

Лог создания рипа

Exact Audio Copy V1.0 beta 3 from 29. August 2011
EAC extraction logfile from 13. March 2015, 1:07
Lisa Batiashvili / Bach - Lisa Batiashvili
Used drive : HL-DT-STDVDRAM GU70N Adapter: 0 ID: 0
Read mode : SecureUtilize accurate stream : YesDefeat audio cache : YesMake use of C2 pointers : No
Read offset correction : 48Overread into Lead-In and Lead-Out : NoFill up missing offset samples with silence : YesDelete leading and trailing silent blocks : NoNull samples used in CRC calculations : YesUsed interface : Native Win32 interface for Win NT & 2000
Used output format : User Defined EncoderSelected bitrate : 128 kBit/sQuality : HighAdd ID3 tag : NoCommand line compressor : C:\Program Files (x86)\Exact Audio Copy\Flac\flac.exeAdditional command line options : -V -8 -T "Date=%year%" -T "Genre=%genre%" %source%
TOC of the extracted CD
Track | Start | Length | Start sector | End sector --------------------------------------------------------- 1 | 0:00.00 | 4:31.11 | 0 | 20335 2 | 4:31.11 | 4:25.26 | 20336 | 40236 3 | 8:56.37 | 3:14.03 | 40237 | 54789 4 | 12:10.40 | 2:45.22 | 54790 | 67186 5 | 14:55.62 | 7:10.32 | 67187 | 99468 6 | 22:06.19 | 6:04.06 | 99469 | 126774 7 | 28:10.25 | 2:39.51 | 126775 | 138750 8 | 30:50.01 | 4:29.01 | 138751 | 158926 9 | 35:19.02 | 7:46.53 | 158927 | 193929 10 | 43:05.55 | 5:51.12 | 193930 | 220266 11 | 48:56.67 | 4:27.37 | 220267 | 240328 12 | 53:24.29 | 3:48.43 | 240329 | 257471 13 | 57:12.72 | 2:57.38 | 257472 | 270784 14 | 60:10.35 | 2:14.61 | 270785 | 280895 15 | 62:25.21 | 6:51.29 | 280896 | 311749
Range status and errors
Selected range
Filename C:\temp\Bach - Lisa Batiashvili\Bach - Lisa Batiashvili.wav
Peak level 98.8 % Extraction speed 2.2 X Range quality 99.9 % Test CRC 3472D4B4 Copy CRC 3472D4B4 Copy OK
No errors occurred
AccurateRip summary
Track 1 accurately ripped (confidence 17) [7F72DC66] (AR v2)Track 2 accurately ripped (confidence 17) [DF796288] (AR v2)Track 3 accurately ripped (confidence 17) [092FA6E2] (AR v2)Track 4 accurately ripped (confidence 17) [930279FC] (AR v2)Track 5 accurately ripped (confidence 17) [7B018F96] (AR v2)Track 6 accurately ripped (confidence 17) [3570D068] (AR v2)Track 7 accurately ripped (confidence 17) [A39AB944] (AR v2)Track 8 accurately ripped (confidence 17) [5783F54F] (AR v2)Track 9 accurately ripped (confidence 17) [87BC4444] (AR v2)Track 10 accurately ripped (confidence 17) [D46A3D28] (AR v2)Track 11 accurately ripped (confidence 17) [D3FDD974] (AR v2)Track 12 accurately ripped (confidence 17) [9E7D8E7C] (AR v2)Track 13 accurately ripped (confidence 17) [FF5815DF] (AR v2)Track 14 accurately ripped (confidence 17) [9162E94D] (AR v2)Track 15 accurately ripped (confidence 17) [217B33B9] (AR v2)
All tracks accurately ripped
End of status report
==== Log checksum 88D10BF12376D054570D71FA241FE9CC3E388786A133979DCFCB9A94B7BC50DC ====
[teatrix.ru].t9620.torrent 
Торрент: Зарегистрирован [ 2015-10-23 17:11 ] · 4C1410DCD88BFE159F51DC2F921224A6D6C1ADB0

Скачать .torrent

Скачать

28 KB

Статус: проверено
Скачан: 0 раз
Размер: 336 MB
terms.php



Быстрый ответ

Имя:

      
Для отправки сообщений необходимо включить JavaScript
Показать сообщения:    

Текущее время: 09-Дек 22:28

Часовой пояс: UTC + 3


Вы можете начинать темы
Вы можете отвечать на сообщения
Вы не можете редактировать свои сообщения
Вы не можете удалять свои сообщения
Вы не можете голосовать в опросах
Вы не можете прикреплять файлы к сообщениям
Вы можете скачивать файлы