(Classical) Теллефсен – Фортепианные концерты / Tellefsen – Piano concertos (Einar Steen-Nokleberg, Terje Mikkelsen) - 2005, FLAC (image+.cue) lossless


Статистика раздачи [Обновить пиров]
Размер:  229 MB   |    Зарегистрирован:  1 год 1 месяц   |    Скачан:  0 раз

Полного источника не было: Никогда

Личеров:  1  [  0 KB/s  ]   Подробная статистика пиров
 
   
 
 
 

[Цитировать]

Теллефсен – Фортепианные концерты / Tellefsen – Piano concertos (Einar Steen-Nøkleberg, Terje Mikkelsen)
Жанр: Classical
Страна-производитель диска: ЕС
Год издания диска: 2005
Издатель (лейбл): SIMAX classics
Номер по каталогу: PSC 1232
Дата записи: 26 — 28 мая и 6 — 8 августа 2003 г., Тронхейм.
Аудиокодек: FLAC
Тип рипа: image+.cue
Битрейт аудио: lossless
Продолжительность: 00:53:50
Источник: odeonmusic
Наличие сканов в содержимом раздачи: да
Треклист:-Томас Дюк Акланд Теллефсен (1823 — 1874).-Фортепианный концерт № 1 g-moll, op. 8 (1847 — 1848, перв. исп. 1852).
01. I. Allegro moderato [13:33].
02. II. Andante. — [06:13]
03. III. Finale. Allegro [08:48].
Фортепианный концерт № 2 f-moll, op. 15 (оконч. 1853, перв. исп. 1855).
04. I. Allegro moderato [12:11].
05. II. Adagio. — [06:06].
06. III. Finale. Mouvement de tarentelle [06:25].-Исполнители:
Einar Steen-Nøkleberg (фортепиано).
Trondheim Symphony Orchestra.
Дирижер Terje Mikkelsen.

Лог создания рипа

Exact Audio Copy V1.0 beta 3 from 29. August 2011
EAC extraction logfile from 7. September 2012, 12:48
Steen-Nokleberg / Tellefsen - Piano concertos - Steen-Nokleberg
Used drive : TSSTcorpCDDVDW SH-222BB Adapter: 2 ID: 1
Read mode : Burst
Read offset correction : 6Overread into Lead-In and Lead-Out : NoFill up missing offset samples with silence : YesDelete leading and trailing silent blocks : NoNull samples used in CRC calculations : YesUsed interface : Native Win32 interface for Win NT & 2000
Used output format : User Defined EncoderSelected bitrate : 1024 kBit/sQuality : HighAdd ID3 tag : NoCommand line compressor : C:\Program Files\Exact Audio Copy\Flac\flac.exeAdditional command line options : -8 -V -T "TITLE=%title%" -T "ARTIST=%artist%" -T "ALBUMARTIST=%albumartist%" -T "ALBUM=%albumtitle%" -T "DATE=%year%" -T "TRACKNUMBER=%tracknr%" -T "TRACKTOTAL=%numtracks%" -T "GENRE=%genre%" -T "COMMENT=%comment%" -T "PERFORMER=%albuminterpret%" -T "COMPOSER=%composer%" %source% -o %dest%
TOC of the extracted CD
Track | Start | Length | Start sector | End sector --------------------------------------------------------- 1 | 0:00.00 | 13:17.35 | 0 | 59809 2 | 13:17.35 | 6:39.28 | 59810 | 89762 3 | 19:56.63 | 9:12.01 | 89763 | 131163 4 | 29:08.64 | 12:11.70 | 131164 | 186058 5 | 41:20.59 | 6:06.65 | 186059 | 213573 6 | 47:27.49 | 6:25.35 | 213574 | 242483
Range status and errors
Selected range
Filename F:\Ripped general\[9610] Tellefsen - Piano concertos - Steen-Nokleberg\Tellefsen - Piano concertos - Steen-Nokleberg.wav
Peak level 97.2 % Extraction speed 24.2 X Test CRC 9AF8C9DD Copy CRC 9AF8C9DD Copy OK
No errors occurred
AccurateRip summary
Track 1 not present in databaseTrack 2 not present in databaseTrack 3 not present in databaseTrack 4 not present in databaseTrack 5 not present in databaseTrack 6 not present in database
None of the tracks are present in the AccurateRip database
End of status report

Содержание индексной карты (.CUE)

REM GENRE ClassicalREM DATE 2005REM DISCID 620CA106REM COMMENT "ExactAudioCopy v1.0b3"PERFORMER "Einar Steen-Nokleberg & Terje Mikkelsen"TITLE "Tellefsen – Piano concertos – Einar Steen-Nokleberg & Terje Mikkelsen"FILE "Tellefsen – Piano concertos – Einar Steen-Nokleberg & Terje Mikkelsen.flac" WAVE TRACK 01 AUDIO TITLE "Piano Concerto No. 1 in G minor, Op. 8 - I. Allegro moderato" PERFORMER "Einar Steen-Nokleberg & Terje Mikkelsen" INDEX 01 00:00:00 TRACK 02 AUDIO TITLE "Piano Concerto No. 1 in G minor, Op. 8 - II. Andante -" PERFORMER "Einar Steen-Nokleberg & Terje Mikkelsen" INDEX 01 13:17:35 TRACK 03 AUDIO TITLE "Piano Concerto No. 1 in G minor, Op. 8 - III. Finale. Allegro" PERFORMER "Einar Steen-Nokleberg & Terje Mikkelsen" INDEX 01 19:56:63 TRACK 04 AUDIO TITLE "Piano Concerto No. 2 in F minor, Op. 15 - I. Allegro moderato" PERFORMER "Einar Steen-Nokleberg & Terje Mikkelsen" INDEX 00 29:00:46 INDEX 01 29:08:64 TRACK 05 AUDIO TITLE "Piano Concerto No. 2 in F minor, Op. 15 - II. Adagio -" PERFORMER "Einar Steen-Nokleberg & Terje Mikkelsen" INDEX 01 41:20:59 TRACK 06 AUDIO TITLE "Piano Concerto No. 2 in F minor, Op. 15 - III. Finale. Mouvement de tarentelle" PERFORMER "Einar Steen-Nokleberg & Terje Mikkelsen" INDEX 01 47:27:49

Вариант индексной карты (.CUE) с выставленными зазорами

REM GENRE ClassicalREM DATE 2005REM DISCID 620CA106REM COMMENT "ExactAudioCopy v1.0b3"PERFORMER "Einar Steen-Nokleberg & Terje Mikkelsen"TITLE "Tellefsen – Piano concertos – Einar Steen-Nokleberg & Terje Mikkelsen"FILE "Tellefsen – Piano concertos – Einar Steen-Nokleberg & Terje Mikkelsen.flac" WAVE TRACK 01 AUDIO TITLE "Piano Concerto No. 1 in G minor, Op. 8 - I. Allegro moderato" PERFORMER "Einar Steen-Nokleberg & Terje Mikkelsen" INDEX 00 00:00:00 INDEX 01 00:02:03 TRACK 02 AUDIO TITLE "Piano Concerto No. 1 in G minor, Op. 8 - II. Andante -" PERFORMER "Einar Steen-Nokleberg & Terje Mikkelsen" INDEX 00 13:15:08 INDEX 01 13:18:31 TRACK 03 AUDIO TITLE "Piano Concerto No. 1 in G minor, Op. 8 - III. Finale. Allegro" PERFORMER "Einar Steen-Nokleberg & Terje Mikkelsen" INDEX 01 19:57:10 TRACK 04 AUDIO TITLE "Piano Concerto No. 2 in F minor, Op. 15 - I. Allegro moderato" PERFORMER "Einar Steen-Nokleberg & Terje Mikkelsen" INDEX 00 29:00:46 INDEX 01 29:09:52 TRACK 05 AUDIO TITLE "Piano Concerto No. 2 in F minor, Op. 15 - II. Adagio -" PERFORMER "Einar Steen-Nokleberg & Terje Mikkelsen" INDEX 00 41:20:56 INDEX 01 41:21:49 TRACK 06 AUDIO TITLE "Piano Concerto No. 2 in F minor, Op. 15 - III. Finale. Mouvement de tarentelle" PERFORMER "Einar Steen-Nokleberg & Terje Mikkelsen" INDEX 01 47:27:73 INDEX 02 53:51:41
-Томас Дюк Акланд Теллефсен.
Фортепианный концерт № 1 (Hubert Rutkowski, Łukasz Borowicz).
Фортепианный концерт № 2 (Александр Мельников, Michael Güttler).
[teatrix.ru].t9621.torrent 
Торрент: Зарегистрирован [ 2015-10-23 17:11 ] · BF9D335A91ADA49BC4BE191A913C83F75FD29FA1

Скачать .torrent

Скачать

19 KB

Статус: проверено
Скачан: 0 раз
Размер: 229 MB
terms.php



Быстрый ответ

Имя:

      
Для отправки сообщений необходимо включить JavaScript
Показать сообщения:    

Текущее время: 06-Дек 17:07

Часовой пояс: UTC + 3


Вы можете начинать темы
Вы можете отвечать на сообщения
Вы не можете редактировать свои сообщения
Вы не можете удалять свои сообщения
Вы не можете голосовать в опросах
Вы не можете прикреплять файлы к сообщениям
Вы можете скачивать файлы