(Classical) Теллефсен – Фортепианный концерт № 1; Фильч – Увертюра и концертная пьеса / Tellefsen – Piano concerto No. 1; Filtsch – Overture & Konzertstuck (Hubert Rutkowski, Łukasz Borowicz) - 2012, FLAC (image+.cue) lossless


Статистика раздачи [Обновить пиров]
Размер:  209 MB   |    Зарегистрирован:  1 год 1 месяц   |    Скачан:  0 раз

Полного источника не было: Никогда

Личеров:  3  [  0 KB/s  ]   Подробная статистика пиров
 
   
 
 
 

[Цитировать]

Теллефсен – Фортепианный концерт № 1; Фильч – Увертюра и концертная пьеса / Tellefsen – Piano concerto No. 1; Filtsch – Overture & Konzertstück (Hubert Rutkowski, Łukasz Borowicz)
Жанр: Classical
Страна-производитель диска: Польша
Год издания диска: 2012
Издатель (лейбл): CD ACCORD
Номер по каталогу: ACD 177-2
Дата записи: май, июнь и сентябрь 2010 г., Варшава.
Аудиокодек: FLAC
Тип рипа: image+.cue
Битрейт аудио: lossless
Продолжительность: 00:52:00
Источник: odeonmusic
Наличие сканов в содержимом раздачи: да
Треклист:-Томас Дюк Акланд Теллефсен (1823 — 1874).-Фортепианный концерт № 1 g-moll, op. 8 (1847 — 1848, перв. исп. 1852).
01. I. Allegro moderato [13:33].
02. II. Andante. — [06:13]
03. III. Finale. Allegro [08:48].-Карл Фильч (1830 — 1845).-Увертюра D-dur для оркестра (до 1843?).
04. Adagio. — Allegro molto [07:23].
Концертная пьеса h-moll для фортепиано с оркестром (ок. 1843).
05. Allegro moderato [15:29].-Исполнители:
Hubert Rutkowski (фортепиано).
Polish Radio National Symphony Orchestra.
Дирижер Łukasz Borowicz.-

Лог создания рипа

Exact Audio Copy V1.0 beta 3 from 29. August 2011
EAC extraction logfile from 12. February 2014, 9:54
Hubert Rutkowski / Tellefsen, Filtsch - Works for Piano and Orchestra - Hubert Rutowski
Used drive : TSSTcorpCDDVDW SH-222BB Adapter: 2 ID: 1
Read mode : SecureUtilize accurate stream : YesDefeat audio cache : YesMake use of C2 pointers : No
Read offset correction : 6Overread into Lead-In and Lead-Out : NoFill up missing offset samples with silence : YesDelete leading and trailing silent blocks : NoNull samples used in CRC calculations : YesUsed interface : Native Win32 interface for Win NT & 2000
Used output format : User Defined EncoderSelected bitrate : 1024 kBit/sQuality : HighAdd ID3 tag : NoCommand line compressor : C:\Program Files\Exact Audio Copy\Flac\flac.exeAdditional command line options : -8 -V -T "TITLE=%title%" -T "ARTIST=%artist%" -T "ALBUMARTIST=%albumartist%" -T "ALBUM=%albumtitle%" -T "DATE=%year%" -T "TRACKNUMBER=%tracknr%" -T "TRACKTOTAL=%numtracks%" -T "GENRE=%genre%" -T "COMMENT=%comment%" -T "PERFORMER=%albuminterpret%" -T "COMPOSER=%composer%" %source% -o %dest%
TOC of the extracted CD
Track | Start | Length | Start sector | End sector --------------------------------------------------------- 1 | 0:00.00 | 13:39.22 | 0 | 61446 2 | 13:39.22 | 6:12.39 | 61447 | 89385 3 | 19:51.61 | 9:00.02 | 89386 | 129887 4 | 28:51.63 | 7:35.44 | 129888 | 164056 5 | 36:27.32 | 15:30.60 | 164057 | 233866
Range status and errors
Selected range
Filename G:\Ripped general\[8150] Tellefsen, Filtsch – Works for Piano and Orchestra – Hubert Rutowski\Tellefsen, Filtsch - Works for Piano and Orchestra - Hubert Rutowski.wav
Peak level 90.8 % Extraction speed 6.9 X Range quality 100.0 % Test CRC 47DA31E6 Copy CRC 47DA31E6 Copy OK
No errors occurred
AccurateRip summary
Track 1 not present in databaseTrack 2 not present in databaseTrack 3 not present in databaseTrack 4 not present in databaseTrack 5 not present in database
None of the tracks are present in the AccurateRip database
End of status report

Содержание индексной карты (.CUE)

REM GENRE ConcertoREM DATE 2012REM DISCID 3D0C2E05REM COMMENT "ExactAudioCopy v1.0b3"PERFORMER "Hubert Rutkowski & Lukasz Borowicz"TITLE "Tellefsen & Filtsch – Works for piano & orchestra – Hubert Rutkowski & Lukasz Borowicz"FILE "Tellefsen & Filtsch – Works for piano & orchestra – Hubert Rutkowski & Lukasz Borowicz.flac" WAVE TRACK 01 AUDIO TITLE "Tellefsen - Piano Concerto No. 1 in G minor, Op. 8 - I. Allegro moderato" PERFORMER "Hubert Rutkowski & Lukasz Borowicz" INDEX 01 00:00:00 TRACK 02 AUDIO TITLE "Tellefsen - Piano Concerto No. 1 in G minor, Op. 8 - II. Andante -" PERFORMER "Hubert Rutkowski & Lukasz Borowicz" INDEX 00 13:34:22 INDEX 01 13:39:22 TRACK 03 AUDIO TITLE "Tellefsen - Piano Concerto No. 1 in G minor, Op. 8 - III. Finale. Allegro" PERFORMER "Hubert Rutkowski & Lukasz Borowicz" INDEX 01 19:51:61 TRACK 04 AUDIO TITLE "Filtsch - Overture for orchestra in D major" PERFORMER "Lukasz Borowicz" INDEX 00 28:41:68 INDEX 01 28:51:63 TRACK 05 AUDIO TITLE "Filtsch - Konzertstuck for piano & orchestra in B minor" PERFORMER "Hubert Rutkowski & Lukasz Borowicz" INDEX 00 36:14:67 INDEX 01 36:27:32
-Микули, Теллфесен, Фильч и Гутман. Сочинения для фортепиано (Hubert Rutkowski).
Микули, Теллефсен и Фильч. Сочинения для скрипки и фортепиано (Voytek Proniewicz, Александр Якобидзе-Гитман).
[teatrix.ru].t9622.torrent 
Торрент: Зарегистрирован [ 2015-10-23 17:11 ] · DB03671C2A2D016CB95C50743286D465150F2C43

Скачать .torrent

Скачать

18 KB

Статус: проверено
Скачан: 0 раз
Размер: 209 MB
terms.php



Быстрый ответ

Имя:

      
Для отправки сообщений необходимо включить JavaScript
Показать сообщения:    

Текущее время: 09-Дек 16:35

Часовой пояс: UTC + 3


Вы можете начинать темы
Вы можете отвечать на сообщения
Вы не можете редактировать свои сообщения
Вы не можете удалять свои сообщения
Вы не можете голосовать в опросах
Вы не можете прикреплять файлы к сообщениям
Вы можете скачивать файлы