(Classical, period) Вебер – «Эврианта»; Крогульский и Теллефсен – Фортепианные концерты / Weber – «Euryanthe» overture; Krogulski & Tellefsen – Piano concertos (Александр Мельников,Tobias Koch; Michael Guttler) - 2014, FLAC (tracks+.cue) lossless


Статистика раздачи [Обновить пиров]
Размер:  233 MB   |    Зарегистрирован:  1 год 1 месяц   |    Скачан:  0 раз

Полного источника не было: Никогда

Личеров:  3  [  0 KB/s  ]   Подробная статистика пиров
 
   
 
 
 

[Цитировать]

Вебер – Увертюра к «Эврианте»; Крогульский – Фортепианный концерт № 1; Теллефсен – Фортепианный концерт № 2 / KM Weber – Overture to «Euryanthe»; Krogulski & Tellefsen – Piano concertos (Александр Мельников / Alexander Melnikov, Tobias Koch; Michael Güttler)
Жанр: Classical, period, live, radio broadcast
Дата записи: 22 августа 2014 г., Варшава. Записано с радио (NPO Radio 4) 3 июня 2015 г.
Аудиокодек: FLAC
Тип рипа: tracks+.cue
Битрейт аудио: lossless
Продолжительность: 01:07:11
Источник: classicalmusicinconcert
Треклист:-Карл Мария Фридрих Август (Эрнст) фон Вебер (1786 — 1826).
«Эврианта», большая героико-романтическая опера в трех действиях, op. 81, J. 291 (1822 — 1823).
01. Увертюра. Allegro marcato, con molto fuoco. — Largo. — Tempo I [08:36].-Томас Дюк Акланд Теллефсен (1823 — 1874).
Фортепианный концерт № 2 f-moll, op. 15 (оконч. 1853, перв. исп. 1855).
02. I. Allegro moderato [11:27].
03. II. Adagio. —
(04.) III. Finale. Mouvement de tarentelle [11:47].-Юзеф Владислав Крогульский (1815 — 1842).
Фортепианный концерт №1 E-dur (1830?).
04. I. Allegro. —
(06.) II. Adagio. — [21:30].
05. III. Rondo. Allegro [13:51].-Исполнители:
Александр Мельников (фортепиано, Érard, 1849)Теллефсен.
Tobias Koch (фортепиано, Érard, 1849)Крогульский.
Concerto Köln, на инструментах эпохи.
Дирижер Michael Güttler.-

Содержание индексной карты (.CUE)

REM GENRE ClassicalREM DATE 2014PERFORMER "Concerto Koln & Michael Guttler"TITLE "Weber, Tellefsen & Krogulski – Michael Guttler"FILE "01 - Weber - Overture to Euryanthe.flac" WAVE TRACK 01 AUDIO TITLE "Weber - Overture to Euryanthe" PERFORMER "Concerto Koln & Michael Guttler" INDEX 00 00:00:00 INDEX 01 00:00:41 INDEX 02 08:17:13FILE "02 - Tellefsen - Piano concerto No. 2 in F minor, Op. 15 - I. Allegro moderato.flac" WAVE TRACK 02 AUDIO TITLE "Tellefsen - Piano concerto No. 2 in F minor, Op. 15 - I. Allegro moderato" PERFORMER "Alexander Melnikov & Michael Guttler" INDEX 00 00:00:00 INDEX 01 00:01:71 TRACK 03 AUDIO INDEX 00 11:25:09FILE "03 - Tellefsen - Piano concerto No. 2 in F minor, Op. 15 - II. Adagio - III. Finale. Mouvement de tarentelle.flac" WAVE TITLE "Tellefsen - Piano concerto No. 2 in F minor, Op. 15 - II. Adagio -" PERFORMER "Alexander Melnikov & Michael Guttler" INDEX 00 00:00:00 INDEX 01 00:03:08 TRACK 04 AUDIO TITLE "Tellefsen - Piano concerto No. 2 in F minor, Op. 15 - III. Finale. Mouvement de tarentelle" PERFORMER "Alexander Melnikov & Michael Guttler" INDEX 01 06:04:56 INDEX 02 11:19:30FILE "04 - Krogulski - Piano concerto No. 1 in E major - I. Allegro - II. Adagio.flac" WAVE TRACK 05 AUDIO TITLE "Krogulski - Piano concerto No. 1 in E major - I. Allegro -" PERFORMER "Tobias Koch & Michael Guttler" INDEX 00 00:00:00 INDEX 01 00:00:72 TRACK 06 AUDIO TITLE "Krogulski - Piano concerto No. 1 in E major - II. Adagio" PERFORMER "Tobias Koch & Michael Guttler" INDEX 01 16:07:00FILE "05 - Krogulski - Piano concerto No. 1 in E major - III. Rondo. Allegro.flac" WAVE TRACK 07 AUDIO TITLE "Krogulski - Piano concerto No. 1 in E major - III. Rondo. Allegro" PERFORMER "Tobias Koch & Michael Guttler" INDEX 01 00:00:00 INDEX 02 13:19:47

Отчет Audiochecker

AUDIOCHECKER v2.0 beta (build 457) - by Dester - opdester@freemail.hu~~~~~~~~~~~~~~~~~~~~~~~~~~~~~~~~~~-=== DO NOT EDIT THIS FILE! ===-
Path: ...\Weber, Tellefsen & Krogulski (Michael Guttler)
1 -=- 01 - Weber - Overture to Euryanthe.flac -=- ERROR2 -=- 02 - Tellefsen - Piano concerto No. 2 in F minor, Op. 15 - I. Allegro moderato.flac -=- ERROR3 -=- 03 - Tellefsen - Piano concerto No. 2 in F minor, Op. 15 - II. Adagio - III. Finale. Mouvement de tarentelle.flac -=- ERROR4 -=- 04 - Krogulski - Piano concerto No. 1 in E major - I. Allegro - II. Adagio.flac -=- ERROR5 -=- 05 - Krogulski - Piano concerto No. 1 in E major - III. Rondo. Allegro.flac -=- ERROR
56104644
-Юзеф Крогульский. Мазурка «в духе Шопена» (Tobias Koch).
[teatrix.ru].t9623.torrent 
Торрент: Зарегистрирован [ 2015-10-23 17:11 ] · 8E19BAEA70D4958F8F2B99EF4191A4DDB86571BB

Скачать .torrent

Скачать

19 KB

Статус: проверено
Скачан: 0 раз
Размер: 233 MB
terms.php



Быстрый ответ

Имя:

      
Для отправки сообщений необходимо включить JavaScript
Показать сообщения:    

Текущее время: 09-Дек 10:48

Часовой пояс: UTC + 3


Вы можете начинать темы
Вы можете отвечать на сообщения
Вы не можете редактировать свои сообщения
Вы не можете удалять свои сообщения
Вы не можете голосовать в опросах
Вы не можете прикреплять файлы к сообщениям
Вы можете скачивать файлы