(Classical) Львов, Аренский, Конюс – Скрипичные концерты / Lvov, Arensky & Сonius – Violin concertos (Сергей Стадлер, Владислав Чернушенко, Владимир Понькин / Stadler, Tchernushenko, Ponkin) - ?, APE (image+.cue) lossless


Статистика раздачи [Обновить пиров]
Размер:  294 MB   |    Зарегистрирован:  1 год 1 месяц   |    Скачан:  0 раз

Полного источника не было: Никогда

Личеров:  3  [  0 KB/s  ]   Подробная статистика пиров
 
   
 
 
 

[Цитировать]

Львов, Аренский, Конюс – Скрипичные концерты / Lvov, Arensky & Сonius – Violin concertos (Сергей Стадлер, Владислав Чернушенко, Владимир Понькин)
Жанр: Classical
Страна-производитель диска: Россия?
Год издания диска: не указан
Издатель (лейбл): Manchester / Bomba-Piter inc. (?)
Номер по каталогу: CDMAN 156
Дата записи: 1986 г., Ленинград.
Аудиокодек: APE
Тип рипа: image+.cue
Битрейт аудио: lossless
Продолжительность: 01:02:41
Источник: mathieum на Погружении
Наличие сканов в содержимом раздачи: да
Треклист:-Алексей Львов (1798 — 1870).
Скрипичный концерт a-moll «в форме драматической сцены» (dans le mode d'une scène dramatique; перв. исп. 1840).
01. Adagio patetico. — Allegretto. — Rondo agitato ma non presto. —
(02.) — Andante religioso. — [Переход.] —
(03.) — Marcia trionfale [19:14].-Антон Аренский (1861 — 1906).
Скрипичный концерт a-moll, op. 54 (1891).
02. Allegro. —
(05.) — Adagio non troppo. — Allegro. — Cadenza. —
(06.) — Tempo di valse. —
(07.) — Poco meno mosso. — Tempo I. — Cadenza. — Tempo I. — Poco più mosso [22:38].-Юлий Конюс (1869 — 1942).
Скрипичный концерт e-moll (ок. 1896).
03. Allegro molto. — Andante espressivo. — Poco più moderato quale tempo I. — Andante. — Allegro. Tempo I. —
(09.) — Adagio. —
(10.) — Recitativo. — Andante espressivo. — Poco più moderato quale tempo I. — Cadenza. — Andante espressivo. — Allegro subito [20:49].-Исполнители:
Сергей Стадлер (скрипка).
Симфонический оркестр Ленинградской филармонии.
Дирижер Владислав Чернушенко (1 — 2).
Дирижер Владимир Понькин (3).-

Содержание индексной карты (.CUE)

REM GENRE ClassicalREM DATE 1986PERFORMER "Sergei Stadler"TITLE "Lvov, Arensky & Сonius – Violin concertos – Stadler, Tchernushenko, Ponkin"FILE "Lvov, Arensky & Сonius – Violin concertos – Stadler, Tchernushenko, Ponkin.ape" WAVE TRACK 01 AUDIO TITLE "Lvov - Violin Concerto in A minor" PERFORMER "Sergei Stadler" INDEX 01 00:00:00 TRACK 02 AUDIO TITLE "Arensky - Violin Concerto in A minor, Op. 54" PERFORMER "Sergei Stadler" INDEX 01 19:23:00 TRACK 03 AUDIO TITLE "Conius - Violin Concerto in E minor" PERFORMER "Sergei Stadler" INDEX 01 42:09:00

Вариант индексной карты (.CUE) с разделением концертов на несколько треков

REM GENRE ClassicalREM DATE 1986PERFORMER "Sergei Stadler"TITLE "Lvov, Arensky & Сonius – Violin concertos – Stadler, Tchernushenko, Ponkin"FILE "Lvov, Arensky & Сonius – Violin concertos – Stadler, Tchernushenko, Ponkin.ape" WAVE TRACK 01 AUDIO TITLE "Lvov - Violin Concerto in A minor - Adagio patetico - Allegretto - Rondo agitato ma non troppo -" PERFORMER "Sergei Stadler" INDEX 01 00:00:00 TRACK 02 AUDIO TITLE "Lvov - Violin Concerto in A minor - Andante religioso -" PERFORMER "Sergei Stadler" INDEX 01 09:53:20 TRACK 03 AUDIO TITLE "Lvov - Violin Concerto in A minor - Marcia triumphale" PERFORMER "Sergei Stadler" INDEX 01 14:34:70 TRACK 04 AUDIO TITLE "Arensky - Violin Concerto in A minor, Op. 54 - Allegro -" PERFORMER "Sergei Stadler" INDEX 00 19:16:73 INDEX 01 19:23:00 TRACK 05 AUDIO TITLE "Arensky - Violin Concerto in A minor, Op. 54 - Adagio non troppo - Allegro - Cadenza -" PERFORMER "Sergei Stadler" INDEX 01 25:49:22 TRACK 06 AUDIO TITLE "Arensky - Violin Concerto in A minor, Op. 54 - Tempo di valse -" PERFORMER "Sergei Stadler" INDEX 01 30:30:63 TRACK 07 AUDIO TITLE "Arensky - Violin Concerto in A minor, Op. 54 - Poco meno mosso - Tempo I" PERFORMER "Sergei Stadler" INDEX 01 35:49:59 TRACK 08 AUDIO TITLE "Conius - Violin Concerto in E minor - Allero molto -" PERFORMER "Sergei Stadler" INDEX 00 42:03:66 INDEX 01 42:09:00 TRACK 09 AUDIO TITLE "Conius - Violin Concerto in E minor - Adagio -" PERFORMER "Sergei Stadler" INDEX 01 50:46:30 TRACK 10 AUDIO TITLE "Conius - Violin Concerto in E minor - Recitativo - Andante espressivo - Tempo I" PERFORMER "Sergei Stadler" INDEX 01 55:04:72

Лог проверки качества

AUDIOCHECKER v2.0 beta (build 457) - by Dester - opdester@freemail.hu~~~~~~~~~~~~~~~~~~~~~~~~~~~~~~~~~~-=== DO NOT EDIT THIS FILE! ===-
Path: ...\Lvov, Arensky & Сonius – Violin concertos (Stadler, Tchernushenko, Ponkin)
1 -=- Lvov, Arensky & Сonius – Violin concertos – Stadler, Tchernushenko, Ponkin.ape -=- CDDA (76%)
209946612
[teatrix.ru].t9624.torrent 
Торрент: Зарегистрирован [ 2015-10-23 17:11 ] · 5C6F7759360BBC8B69CF2DEC10283E85E0B9D09F

Скачать .torrent

Скачать

13 KB

Статус: проверено
Скачан: 0 раз
Размер: 294 MB
terms.php



Быстрый ответ

Имя:

      
Для отправки сообщений необходимо включить JavaScript
Показать сообщения:    

Текущее время: 10-Дек 21:33

Часовой пояс: UTC + 3


Вы можете начинать темы
Вы можете отвечать на сообщения
Вы не можете редактировать свои сообщения
Вы не можете удалять свои сообщения
Вы не можете голосовать в опросах
Вы не можете прикреплять файлы к сообщениям
Вы можете скачивать файлы