(Classical, Orchestra, Piano) Kunitaka Kokaji - Double, Resonance, Chant d'amour, Deploration, Polkas, Tangos - 2007, FLAC (tracks+.cue) lossless


Статистика раздачи [Обновить пиров]
Размер:  338 MB   |    Зарегистрирован:  1 год 1 месяц   |    Скачан:  0 раз

Полного источника не было: Никогда

Личеров:  3  [  0 KB/s  ]   Подробная статистика пиров
 
   
 
 
 

[Цитировать]

Kunitaka Kokaji - Double, Resonance, Chant d'amour, Deploration, Polkas, Tangos
Жанр: Classical, Orchestra, Piano
Страна-производитель диска: Япония
Год издания диска: 2007
Издатель (лейбл): Alm Records
Номер по каталогу: ALCD-72
Аудиокодек: FLAC
Тип рипа: tracks+.cue
Битрейт аудио: lossless
Продолжительность: 1:16:05
Источник (релизер): what.cd
Наличие сканов в содержимом раздачи: да
Треклист:
Kunitaka Kokaji
01. Chant d'amour pour orchestre (15:12)
02. Chant d'amout II pour piano et orchestre (14:57)
03. Deploration II pour piano et orchestre (11:42)
04. Chant d'amour III pour orchestre (11:42)
05. Double, Resonance II pour piano et 16 instrumentistes (9:15)
06. Polkas, Tangos II for Piano and Chamber Orchestra (13:17)
Исполнители:
Kunitaka Kokaji - conductor (#1,3-6)
Kazuyoshi Akiyama - conductor (#2)
Tokyo Symphony Orchestra (#1-4)
Contemporary Music Ensemble Tokyo COmeT (#5-6)
Masako Nakai - piano (#2,3,5,6)
Recorded in 02/1991 (#1), 10/1999 (#2), 10/2003 (#3), 10/2006 (#4), 11/2004 (#5-6).

Лог создания рипа

Exact Audio Copy V1.0 beta 3 from 29. August 2011
EAC extraction logfile from 11. January 2014, 13:31
Various / Double, Résonance
Used drive : TSSTcorpDVD+-RW TS-U633F Adapter: 1 ID: 0
Read mode : SecureUtilize accurate stream : YesDefeat audio cache : YesMake use of C2 pointers : No
Read offset correction : 6Overread into Lead-In and Lead-Out : NoFill up missing offset samples with silence : YesDelete leading and trailing silent blocks : NoNull samples used in CRC calculations : YesUsed interface : Installed external ASPI interfaceGap handling : Appended to previous track
Used output format : User Defined EncoderSelected bitrate : 1024 kBit/sQuality : HighAdd ID3 tag : NoCommand line compressor : C:\Program Files\Exact Audio Copy\Flac\flac.exeAdditional command line options : -8 -V -T "ARTIST=%artist%" -T "TITLE=%title%" -T "ALBUM=%albumtitle%" -T "DATE=%year%" -T "TRACKNUMBER=%tracknr%" -T "GENRE=%genre%" -T "PERFORMER=%albuminterpret%" -T "COMPOSER=%composer%" %haslyrics%--tag-from-file=LYRICS="%lyricsfile%"%haslyrics% -T "ALBUMARTIST=%albumartist%" -T "DISCNUMBER=%cdnumber%" -T "TOTALDISCS=%totalcds%" -T "TOTALTRACKS=%numtracks%" -T "COMMENT=%comment%" %source% -o %dest%
TOC of the extracted CD
Track | Start | Length | Start sector | End sector --------------------------------------------------------- 1 | 0:00.00 | 15:12.27 | 0 | 68426 2 | 15:12.27 | 14:56.65 | 68427 | 135691 3 | 30:09.17 | 11:42.32 | 135692 | 188373 4 | 41:51.49 | 11:42.09 | 188374 | 241032 5 | 53:33.58 | 9:15.27 | 241033 | 282684 6 | 62:49.10 | 13:17.36 | 282685 | 342495
Track 1
Filename H:\flac\kunitaka\01 - Tokyo Symphony Orchestra - Chant d'amour pour orchestre.wav
Pre-gap length 0:00:02.00
Peak level 87.4 % Extraction speed 3.7 X Track quality 100.0 % Test CRC ADC3AA8F Copy CRC ADC3AA8F Track not present in AccurateRip database Copy OK
Track 2
Filename H:\flac\kunitaka\02 - Masako Nakai, Tokyo Symphony Orchestra - Chant d'amout II pour piano et orchestre.wav
Pre-gap length 0:00:05.66
Peak level 96.7 % Extraction speed 4.6 X Track quality 100.0 % Test CRC EAC28A38 Copy CRC EAC28A38 Track not present in AccurateRip database Copy OK
Track 3
Filename H:\flac\kunitaka\03 - Masako Nakai, Tokyo Symphony Orchestra - Déploration II pour piano et orchestre.wav
Pre-gap length 0:00:10.57
Peak level 100.0 % Extraction speed 5.1 X Track quality 100.0 % Test CRC A0423BCC Copy CRC A0423BCC Track not present in AccurateRip database Copy OK
Track 4
Filename H:\flac\kunitaka\04 - Tokyo Symphony Orchestra - Chant d'amour III pour orchestre.wav
Pre-gap length 0:00:06.05
Peak level 100.0 % Extraction speed 5.6 X Track quality 100.0 % Test CRC 6033130E Copy CRC 6033130E Track not present in AccurateRip database Copy OK
Track 5
Filename H:\flac\kunitaka\05 - Masako Nakai, Contemporary Music Ensemble Tokyo COmeT - Double, Résonance II pour piano et 16 instrumentistes.wav
Pre-gap length 0:00:09.48
Peak level 82.7 % Extraction speed 5.9 X Track quality 100.0 % Test CRC 836D571E Copy CRC 836D571E Track not present in AccurateRip database Copy OK
Track 6
Filename H:\flac\kunitaka\06 - Masako Nakai, Contemporary Music Ensemble Tokyo COmeT - Polkas, Tangos II for Piano and Chamber Orchestra.wav
Pre-gap length 0:00:04.30
Peak level 97.4 % Extraction speed 6.0 X Track quality 99.9 % Test CRC 55131887 Copy CRC 55131887 Track not present in AccurateRip database Copy OK
None of the tracks are present in the AccurateRip database
No errors occurred
End of status report
==== Log checksum 8AEDF62EFAF13DA27762D855463494B67B932861D9939ED33426077C369D7522 ====

Содержание индексной карты (.CUE)

REM GENRE ClassicalREM DATE 2007REM DISCID 4311D606REM COMMENT "ExactAudioCopy v1.0b3"PERFORMER "Various"TITLE "Kunitaka Kokaji: Double, Resonance"FILE "01 - Tokyo Symphony Orchestra - Chant d'amour.wav" WAVE TRACK 01 AUDIO TITLE "Chant d'amour" PERFORMER "Tokyo Symphony Orchestra" INDEX 01 00:00:00 TRACK 02 AUDIO TITLE "Chant d'amout II" PERFORMER "Masako Nakai, Tokyo Symphony Orchestra" INDEX 00 15:06:52FILE "02 - Masako Nakai, Tokyo Symphony Orchestra - Chant d'amout II.wav" WAVE INDEX 01 00:00:00 TRACK 03 AUDIO TITLE "Deploration II" PERFORMER "Masako Nakai, Tokyo Symphony Orchestra" INDEX 00 14:46:22FILE "03 - Masako Nakai, Tokyo Symphony Orchestra - Deploration II.wav" WAVE INDEX 01 00:00:00 TRACK 04 AUDIO TITLE "Chant d'amour III pour orchestre" PERFORMER "Tokyo Symphony Orchestra" INDEX 00 11:36:28FILE "04 - Tokyo Symphony Orchestra - Chant d'amour III.wav" WAVE INDEX 01 00:00:00 TRACK 05 AUDIO TITLE "Double, Resonance II" PERFORMER "Masako Nakai, Contemporary Music Ensemble Tokyo COmeT" INDEX 00 11:32:48FILE "05 - Masako Nakai, Contemporary Music Ensemble Tokyo COmeT - Double, Resonance II.wav" WAVE INDEX 01 00:00:00 TRACK 06 AUDIO TITLE "Polkas, Tangos II" PERFORMER "Masako Nakai, Contemporary Music Ensemble Tokyo COmeT" INDEX 00 09:11:04FILE "06 - Masako Nakai, Contemporary Music Ensemble Tokyo COmeT - Polkas, Tangos II.wav" WAVE INDEX 01 00:00:00

Отчет CUETools

[CUETools log; Date: 14.09.2015 1:04:46; Version: 2.1.5][CTDB TOCID: zV0nUV6If99aJk5UdNamOso8u7E-] disk not present in database.[AccurateRip ID: 001334d3-0064a64e-4311d606] found.Track [ CRC | V2 ] Status 01 [f2d26b49|e211ae38] (0+1/1) Accurately ripped 02 [020973e9|f29c6d59] (0+1/1) Accurately ripped 03 [1e4e5735|d890ed60] (0+1/1) Accurately ripped 04 [afef5b62|a50feb72] (0+1/1) Accurately ripped 05 [8b5fdb46|8257ed26] (0+1/1) Accurately ripped 06 [271d8656|883bf955] (0+1/1) Accurately ripped
Track Peak [ CRC32 ] [W/O NULL] [ LOG ] -- 100,0 [D1127713] [9203D9BE] 01 87,4 [ADC3AA8F] [66B7F806] CRC32 02 96,7 [EAC28A38] [6729C04F] CRC32 03 100,0 [A0423BCC] [92822FBF] CRC32 04 100,0 [6033130E] [DA239D92] CRC32 05 82,7 [836D571E] [1D3FDECF] CRC32 06 97,4 [55131887] [7BB498BC] CRC32
[teatrix.ru].t9625.torrent 
Торрент: Зарегистрирован [ 2015-10-23 17:11 ] · 7ED564CB53C93D310E46EB9FBFD16A4F08B5B59B

Скачать .torrent

Скачать

15 KB

Статус: проверено
Скачан: 0 раз
Размер: 338 MB
terms.php



Быстрый ответ

Имя:

      
Для отправки сообщений необходимо включить JavaScript
Показать сообщения:    

Текущее время: 07-Дек 15:35

Часовой пояс: UTC + 3


Вы можете начинать темы
Вы можете отвечать на сообщения
Вы не можете редактировать свои сообщения
Вы не можете удалять свои сообщения
Вы не можете голосовать в опросах
Вы не можете прикреплять файлы к сообщениям
Вы можете скачивать файлы