(Classical, Orchestra, Bassoon, Hichiriki) Akira Nishimura - Mantra of the Light, The Navel of the Sun, Tapas - 2007, FLAC (tracks+.cue), lossless


Статистика раздачи [Обновить пиров]
Размер:  303 MB   |    Зарегистрирован:  1 год 1 месяц   |    Скачан:  0 раз

Полного источника не было: Никогда

Личеров:  3  [  0 KB/s  ]   Подробная статистика пиров
 
   
 
 
 

[Цитировать]

Akira Nishimura - Mantra of the Light, The Navel of the Sun, Tapas
Жанр: Classical, Orchestra, Bassoon, Hichiriki
Страна-производитель диска: Япония
Год издания диска: 2007
Издатель (лейбл): Camerata Tokyo, Inc.
Номер по каталогу: CMCD-99052
Аудиокодек: FLAC
Тип рипа: tracks+.cue
Битрейт аудио: lossless
Продолжительность: 1:04:47
Источник (релизер): what.cd
Наличие сканов в содержимом раздачи: да
Треклист:
Akira Nishimura (b. 1953)
01. Mantra of the Light for Female Chorus and Orchestra (28:36)
02. The Navel of the Sun - Music for Orchestra and Hichiriki (20:08)
03. Tapas - Concerto for Bassoon, Percussion and Strings (16:03)
Исполнители:
Kazuyoshi Akiyama - conductor (#1)
Tokyo Symphony Orchestra (#1-2)
Tokyo Philharmonic Chorus (#1)
Nagao Okubo - hichiriki (#2)
Hideomi Kuroiwa - conductor (#2)
Isamu Magome - bassoon (#3)
Shigemitsu Eiso, Yasushi Sasaki, Yasunobu Mikami, Seiji Mishina - percussion
Masahiko Enkoji - conductor (#3)
Sendai Philharmonic Orchestra (#3)
Recorded in 06/1993 (#1), 05/1989 (#2), 11/1990 (#3).

Лог создания рипа

Exact Audio Copy V1.0 beta 3 from 29. August 2011
EAC extraction logfile from 15. December 2013, 16:25
Various / Works
Used drive : TSSTcorpDVD+-RW TS-U633F Adapter: 1 ID: 0
Read mode : SecureUtilize accurate stream : YesDefeat audio cache : YesMake use of C2 pointers : No
Read offset correction : 6Overread into Lead-In and Lead-Out : NoFill up missing offset samples with silence : YesDelete leading and trailing silent blocks : NoNull samples used in CRC calculations : YesUsed interface : Installed external ASPI interfaceGap handling : Appended to previous track
Used output format : User Defined EncoderSelected bitrate : 1024 kBit/sQuality : HighAdd ID3 tag : NoCommand line compressor : C:\Program Files\Exact Audio Copy\Flac\flac.exeAdditional command line options : -8 -V -T "ARTIST=%artist%" -T "TITLE=%title%" -T "ALBUM=%albumtitle%" -T "DATE=%year%" -T "TRACKNUMBER=%tracknr%" -T "GENRE=%genre%" -T "PERFORMER=%albuminterpret%" -T "COMPOSER=%composer%" %haslyrics%--tag-from-file=LYRICS="%lyricsfile%"%haslyrics% -T "ALBUMARTIST=%albumartist%" -T "DISCNUMBER=%cdnumber%" -T "TOTALDISCS=%totalcds%" -T "TOTALTRACKS=%numtracks%" -T "COMMENT=%comment%" %source% -o %dest%
TOC of the extracted CD
Track | Start | Length | Start sector | End sector --------------------------------------------------------- 1 | 0:00.00 | 28:36.25 | 0 | 128724 2 | 28:36.25 | 20:08.25 | 128725 | 219349 3 | 48:44.50 | 16:03.15 | 219350 | 291589
Track 1
Filename H:\flac\Nishimura\01 - Tokyo Symphony Orchestra. Tokyo Philharmonic Chorus - Mantra of the Light for Female Chorus and Orchestra.wav
Pre-gap length 0:00:02.00
Peak level 99.5 % Extraction speed 4.0 X Track quality 100.0 % Test CRC 06DBED60 Copy CRC 06DBED60 Accurately ripped (confidence 1) [4A6611E0] (AR v2) Copy OK
Track 2
Filename H:\flac\Nishimura\02 - Tokyo Symphony Orchestra, Nagao Okubo - The Navel of the Sun.wav
Pre-gap length 0:00:07.98
Peak level 100.0 % Extraction speed 5.6 X Track quality 100.0 % Test CRC 8F03E348 Copy CRC 8F03E348 Accurately ripped (confidence 1) [FDBB35F2] (AR v2) Copy OK
Track 3
Filename H:\flac\Nishimura\03 - Sendai Philharmonic Orchestra, Isamu Magome - Tapas.wav
Pre-gap length 0:00:09.98
Peak level 100.0 % Extraction speed 6.0 X Track quality 100.0 % Test CRC 7BDE56F8 Copy CRC 7BDE56F8 Accurately ripped (confidence 1) [6E908C4D] (AR v2) Copy OK
All tracks accurately ripped
No errors occurred
End of status report
==== Log checksum 85C34AF3B35A4BA7DEF1157B8CE142057F0B6865159D7D29E621A240142641BE ====

Содержание индексной карты (.CUE)

REM GENRE ClassicalREM DATE 2007REM DISCID 260F2F03REM COMMENT "ExactAudioCopy v1.0b3"PERFORMER "Various"TITLE "Akira Nishimura: Works"FILE "01 - Tokyo Symphony Orchestra, Tokyo Philharmonic Chorus - Mantra of the Light.wav" WAVE TRACK 01 AUDIO TITLE "Mantra of the Light" PERFORMER "Tokyo Symphony Orchestra, Tokyo Philharmonic Chorus" INDEX 01 00:00:00 TRACK 02 AUDIO TITLE "The Navel of the Sun" PERFORMER "Tokyo Symphony Orchestra, Nagao Okubo" INDEX 00 28:28:26FILE "02 - Tokyo Symphony Orchestra, Nagao Okubo - The Navel of the Sun.wav" WAVE INDEX 01 00:00:00 TRACK 03 AUDIO TITLE "Tapas" PERFORMER "Sendai Philharmonic Orchestra, Isamu Magome" INDEX 00 19:58:26FILE "03 - Sendai Philharmonic Orchestra, Isamu Magome - Tapas.wav" WAVE INDEX 01 00:00:00

Отчет CUETools

[CUETools log; Date: 14.09.2015 0:32:49; Version: 2.1.5][CTDB TOCID: 9bm9Ol1YKshfvc4G09442x6mQ_c-] disk not present in database.[AccurateRip ID: 0009c2b1-001fc445-260f2f03] found.Track [ CRC | V2 ] Status 01 [ee38dfe1|4a6611e0] (0+1/1) Accurately ripped 02 [54be0988|fdbb35f2] (0+1/1) Accurately ripped 03 [6b7c6800|6e908c4d] (0+1/1) Accurately ripped
Track Peak [ CRC32 ] [W/O NULL] [ LOG ] -- 100,0 [79663591] [C2F7B3CE] 01 99,5 [06DBED60] [F3A4CA5D] CRC32 02 100,0 [8F03E348] [317E40D6] CRC32 03 100,0 [7BDE56F8] [5DC0475B] CRC32
[teatrix.ru].t9626.torrent 
Торрент: Зарегистрирован [ 2015-10-23 17:11 ] · 170BB0FCC86A66BCA64FDC4C4AD647DE298293AA

Скачать .torrent

Скачать

13 KB

Статус: проверено
Скачан: 0 раз
Размер: 303 MB
terms.php



Быстрый ответ

Имя:

      
Для отправки сообщений необходимо включить JavaScript
Показать сообщения:    

Текущее время: 05-Дек 13:30

Часовой пояс: UTC + 3


Вы можете начинать темы
Вы можете отвечать на сообщения
Вы не можете редактировать свои сообщения
Вы не можете удалять свои сообщения
Вы не можете голосовать в опросах
Вы не можете прикреплять файлы к сообщениям
Вы можете скачивать файлы