(Classical) Tchaikovsky, Glazunov / Чайковский, Глазунов. Violin Concertos / Концерты для скрипки с оркестром - Victor Tretyakov, Vladimir Fedoseev / Виктор Третьяков, Владимир Федосеев - 1991, FLAC (image+.cue) lossless


Статистика раздачи [Обновить пиров]
Размер:  269 MB   |    Зарегистрирован:  1 год 1 месяц   |    Скачан:  0 раз

Полного источника не было: Никогда

Личеров:  2  [  0 KB/s  ]   Подробная статистика пиров
 
   
 
 
 

[Цитировать]

Tchaikovsky, Glazunov / Чайковский, Глазунов. Violin Concertos / Концерты для скрипки с оркестром - Victor Tretyakov, Vladimir Fedoseev / Виктор Третьяков, Владимир Федосеев
Жанр: Classical
Страна-производитель диска: USSR
Год издания диска: 1991
Издатель (лейбл): Мелодия / Melodiya
Номер по каталогу: 1C1-5773385
Дата записи: 1984, 1985
Аудиокодек: FLAC
Тип рипа: image+.cue
Битрейт аудио: lossless
Продолжительность: 56:14
Источник: собственный рип
Наличие сканов в содержимом раздачи: да
Треклист:
Петр Чайковский (1840 — 1893)
Концерт для скрипки с оркестром ре мажор, соч. 35

1. Allegro moderato
2. Canzonetta. Andante 19.05
3. Finale. Allegro vivacissimo — 16.53
Александр Глазунов (1865 — 1936)
4. Концерт для скрипки с оркестром ля минор, соч. 82 — 20.16

Исполнители:
Виктор Третьяков, скрипка.
Большой симфонический оркестр Гостелерадио СССР
Дирижер Владимир Федосеев.
Записи 1984 г. (Чайковский), с концерта в Большом зале Московской консерватории 5 мая 1985 г. (Глазунов).

Лог создания рипа

Exact Audio Copy V1.0 beta 3 from 29. August 2011
Отчёт EAC об извлечении, выполненном 3. сентября 2015, 20:31
Tchaikovsky/Glazunov / Victor Tretyakov, Violin
Дисковод: TSSTcorpBDDVDW SE-506BB Adapter: 5 ID: 0
Режим чтения : ДостоверностьИспользование точного потока : ДаОтключение кэша аудио : ДаИспользование указателей C2 : Нет
Коррекция смещения при чтении : 6Способность читать области Lead-in и Lead-out : НетЗаполнение пропущенных сэмплов тишиной : ДаУдаление блоков с тишиной в начале и конце : НетПри вычислениях CRC использовались нулевые сэмплы : ДаИнтерфейс : Встроенный Win32-интерфейс для Win NT/2000
Выходной формат : Пользовательский кодировщикВыбранный битрейт : 768 kBit/sКачество : ВысокийДобавление ID3-тега : НетУтилита сжатия : E:\Program Files\audio\EAC\FLAC\FLAC.EXEДополнительные параметры : -6 -V -T "ARTIST=%artist%" -T "TITLE=%title%" -T "ALBUM=%albumtitle%" -T "DATE=%year%" -T "TRACKNUMBER=%tracknr%" -T "GENRE=%genre%" -T "COMMENT=%comment%" -T "BAND=%albuminterpret%" -T "ALBUMARTIST=%albuminterpret%" -T "COMPOSER=%composer%" %haslyrics%--tag-from-file=LYRICS="%lyricsfile%"%haslyrics% -T "DISCNUMBER=%cdnumber%" -T "TOTALDISCS=%totalcds%" -T "TOTALTRACKS=%numtracks%" %hascover%--picture="%coverfile%"%hascover% %source% -o %dest%
TOC извлечённого CD
Трек | Старт | Длительность | Начальный сектор | Конечный сектор --------------------------------------------------------------------- 1 | 0:00.00 | 19:11.00 | 0 | 86324 2 | 19:11.00 | 6:54.15 | 86325 | 117389 3 | 26:05.15 | 10:03.47 | 117390 | 162661 4 | 36:08.62 | 20:15.55 | 162662 | 253841
Характеристики диапазона извлечения и сообщения об ошибках
Выбранный диапазон
Имя файла M:\_Music\Classics\Tchaikovsky, Glazunov - Tretyakov, Violin, Fedoseev\Tchaikovsky,Glazunov - Victor Tretyakov, Violin.wav
Пиковый уровень 91.2 % Скорость извлечения 1.9 X Качество диапазона 100.0 % CRC теста D9AAA40B CRC копии D9AAA40B Копирование... OK
Ошибок не произошло
AccurateRip: сводка
Трек 1 отсутствует в базе данныхТрек 2 отсутствует в базе данныхТрек 3 отсутствует в базе данныхТрек 4 отсутствует в базе данных
Ни одного трека нет в базе AccurateRip
Конец отчёта
==== Контрольная сумма отчёта 2FB01C370015192BD0E21393546881B18B6D99772A4DFEFC0CEEE7036C654349 ====

Содержание индексной карты (.CUE)

REM GENRE ClassicalREM DISCID 290D3804REM COMMENT "ExactAudioCopy v1.0b3"PERFORMER "Tchaikovsky/Glazunov"TITLE "Victor Tretyakov, Violin"FILE "Tchaikovsky,Glazunov - Victor Tretyakov, Violin.flac" WAVE TRACK 01 AUDIO TITLE "Violin Concerto in D major, op. 35: 1. Allegro moderato" PERFORMER "Tchaikovsky" INDEX 01 00:00:00 TRACK 02 AUDIO TITLE "Violin Concerto in D major, op. 35: 2. Canzonetta. Andante" PERFORMER "Tchaikovsky" INDEX 00 19:07:00 INDEX 01 19:11:00 TRACK 03 AUDIO TITLE "Violin Concerto in D major, op. 35: 3. Finale. Allegro vivacissimo" PERFORMER "Tchaikovsky" INDEX 00 26:05:12 INDEX 01 26:05:15 TRACK 04 AUDIO TITLE "Violin Concerto in A minor, op. 82" PERFORMER "Glazunov" INDEX 00 36:04:37 INDEX 01 36:08:62
[teatrix.ru].t9627.torrent 
Торрент: Зарегистрирован [ 2015-10-23 17:11 ] · 4718EE07BC2619D20B1528B904D2F247162CC11F

Скачать .torrent

Скачать

11 KB

Статус: проверено
Скачан: 0 раз
Размер: 269 MB
terms.php



Быстрый ответ

Имя:

      
Для отправки сообщений необходимо включить JavaScript
Показать сообщения:    

Текущее время: 02-Дек 21:09

Часовой пояс: UTC + 3


Вы можете начинать темы
Вы можете отвечать на сообщения
Вы не можете редактировать свои сообщения
Вы не можете удалять свои сообщения
Вы не можете голосовать в опросах
Вы не можете прикреплять файлы к сообщениям
Вы можете скачивать файлы