(Classical) Paul Termos · Concerto for Alto Saxophone / Flute and Chamber Orchestra, String Quartet I, Expres(s), Groundwork (A. Bornkamp, L. Vis, Mondriaan Kwartet, Doelensemble, A. van Beek, G. Wiegel, etc.) · 1997, FLAC (tracks+.cue) lossless


Статистика раздачи [Обновить пиров]
Размер:  339 MB   |    Зарегистрирован:  1 год 1 месяц   |    Скачан:  0 раз

Полного источника не было: Никогда

 
   
 
 
 

[Цитировать]

Paul Termos
Concerto for Alto Saxophone and Chamber Orchestra / String Quartet I /
Expres(s) / Groundwork / Concerto for Flute and Chamber Orchestra
Жанр: classical
Страна-производитель диска: Netherlands
Год издания диска: 1997
Издатель: Donemus
Номер по каталогу: CV60
Даты записей: 1990–1997
Аудиокодек: FLAC
Тип рипа: tracks+.cue
Битрейт аудио: lossless
Продолжительность: 01:08:56
Источник: what.cd
Буклет в содержимом раздачи есть
Исполнители указаны к каждому произведению
Треклист:
01. Concerto for alto saxophone and chamber orchestra (15:51) | Arno Bornkamp (alto saxophone), Netherlands Ballet Orchestra conducted by Lucas Vis. Recorded 29 February 1996, De Rode Hoed, Amsterdam.
02. Strijkkwartet I (13:24) | Mondriaan Kwartet. Recorded 2 May 1990, Felix Meritis.
03. Expres(s) (10:28) | Doelensemble conducted by Arie van Beek. Recorded 22 May 1995, De Doelen, Rotterdam.
04. Groundwork (12:00) | Doelenensemble conducted by George Wiegel. Recorded 19 December 1996, De Doelen, Rotterdam.
05. Concerto for flute and chamber orchestra (17:11) | Eleonore Pameijer (flute), Radio Chamber Orchestra conducted by Ed Spanjaard. Recorded 19 January 1997, Vredenburg, Utrecht.

Лог создания рипа

X Lossless Decoder version 20131102 (145.0)
XLD extraction logfile from 2014-03-15 16:14:28 +0100
Various Artists / Composers' Voice Highlights CV60 - Paul Termos - Concerto for Alto Saxophone and Chamber Orchestra / String Quartet I / Expres(s) / Groundwork / Concerto for Flute and Chamber Orchestra
Used drive : TSSTcorp CDDVDW SE-S084D (revision TS01)Media type : Pressed CD
Ripper mode : XLD Secure RipperDisable audio cache : OK for the drive with a cache less than 1375KiBMake use of C2 pointers : NORead offset correction : 6Max retry count : 100Gap status : Analyzed, Appended (except HTOA)
TOC of the extracted CD Track | Start | Length | Start sector | End sector --------------------------------------------------------- 1 | 00:00:00 | 15:51:00 | 0 | 71324 2 | 15:51:00 | 13:24:32 | 71325 | 131656 3 | 29:15:32 | 10:28:18 | 131657 | 178774 4 | 39:43:50 | 12:00:35 | 178775 | 232809 5 | 51:44:10 | 17:11:35 | 232810 | 310169
AccurateRip Summary Disc not found in AccurateRip DB.
All Tracks Album gain : -3.40 dB Peak : 0.999969 Statistics Read error : 0 Jitter error (maybe fixed) : 0 Retry sector count : 0 Damaged sector count : 0
Track 01 Filename : /Volumes/4TB 2/CD rips/Composers' Voice Highlights CV60 - Paul Termos - Concerto for Alto Saxophone and Chamber Orchestra : String Quartet I : Expres(s) : Groundwork : Concerto for Flute and Chamber Orchestra/01 Concerto for Alto Saxophone and Chamber Orchestra [1983].flac Pre-gap length : 00:02:00
Track gain : -4.67 dB Peak : 0.965759 CRC32 hash (test run) : 746CDCF8 CRC32 hash : 746CDCF8 CRC32 hash (skip zero) : 094BEB17 AccurateRip v1 signature : A715A669 AccurateRip v2 signature : 3B73BD51 ->Track not present in AccurateRip database. Statistics Read error : 0 Jitter error (maybe fixed) : 0 Retry sector count : 0 Damaged sector count : 0
Track 02 Filename : /Volumes/4TB 2/CD rips/Composers' Voice Highlights CV60 - Paul Termos - Concerto for Alto Saxophone and Chamber Orchestra : String Quartet I : Expres(s) : Groundwork : Concerto for Flute and Chamber Orchestra/02 Strijkkwartet (String Quartet I) [1987, rev. 1991].flac Pre-gap length : 00:06:12
Track gain : -3.99 dB Peak : 0.879944 CRC32 hash (test run) : 468AEECC CRC32 hash : 468AEECC CRC32 hash (skip zero) : 4A8C0EF5 AccurateRip v1 signature : 9AB23EBC AccurateRip v2 signature : 67E3EF4A ->Track not present in AccurateRip database. Statistics Read error : 0 Jitter error (maybe fixed) : 0 Retry sector count : 0 Damaged sector count : 0
Track 03 Filename : /Volumes/4TB 2/CD rips/Composers' Voice Highlights CV60 - Paul Termos - Concerto for Alto Saxophone and Chamber Orchestra : String Quartet I : Expres(s) : Groundwork : Concerto for Flute and Chamber Orchestra/03 Expres(s) [1984, rev. 1995].flac Pre-gap length : 00:05:67
Track gain : 0.30 dB Peak : 0.977234 CRC32 hash (test run) : 75A50892 CRC32 hash : 75A50892 CRC32 hash (skip zero) : EEE576AA AccurateRip v1 signature : 22F5BEFA AccurateRip v2 signature : 196A6B81 ->Track not present in AccurateRip database. Statistics Read error : 0 Jitter error (maybe fixed) : 0 Retry sector count : 0 Damaged sector count : 0
Track 04 Filename : /Volumes/4TB 2/CD rips/Composers' Voice Highlights CV60 - Paul Termos - Concerto for Alto Saxophone and Chamber Orchestra : String Quartet I : Expres(s) : Groundwork : Concerto for Flute and Chamber Orchestra/04 Groundwork [1993, rev. 1996].flac Pre-gap length : 00:06:06
Track gain : -1.66 dB Peak : 0.823792 CRC32 hash (test run) : DF5CA0DB CRC32 hash : DF5CA0DB CRC32 hash (skip zero) : FAEFE3D9 AccurateRip v1 signature : 9BEA7E16 AccurateRip v2 signature : 69D6F304 ->Track not present in AccurateRip database. Statistics Read error : 0 Jitter error (maybe fixed) : 0 Retry sector count : 0 Damaged sector count : 0
Track 05 Filename : /Volumes/4TB 2/CD rips/Composers' Voice Highlights CV60 - Paul Termos - Concerto for Alto Saxophone and Chamber Orchestra : String Quartet I : Expres(s) : Groundwork : Concerto for Flute and Chamber Orchestra/05 Concerto for Flute and Chamber Orchestra [1994-95, rev. 1996].flac Pre-gap length : 00:05:60
Track gain : -0.70 dB Peak : 0.999969 CRC32 hash (test run) : CEB2D84C CRC32 hash : CEB2D84C CRC32 hash (skip zero) : 18783514 AccurateRip v1 signature : 45C56768 AccurateRip v2 signature : 32FE317A ->Track not present in AccurateRip database. Statistics Read error : 0 Jitter error (maybe fixed) : 0 Retry sector count : 0 Damaged sector count : 0
No errors occurred
End of status report
-----BEGIN XLD SIGNATURE-----PHYNaenhgl0cwElVbLFLhFauKRozVFrFHKEcsnjfrwuvFO4_D3m7Gx7wRcPxSJzv3e_xtuM45H.ETo7vbQiuHkJqOmEQ1g4WO4oP.3K-----END XLD SIGNATURE-----

Содержание индексной карты (.CUE)

TITLE "Composers’ Voice Highlights: Paul Termos"PERFORMER "Various Artists"REM DISCID 43102705REM REPLAYGAIN_ALBUM_GAIN -3.40 dBREM REPLAYGAIN_ALBUM_PEAK 0.999969FILE "01. Concerto for alto saxophone and chamber orchestra.flac" WAVE TRACK 01 AUDIO TITLE "Concerto for alto saxophone and chamber orchestra" PERFORMER "Arno Bornkamp · Netherlands Ballet Orchestra · Lucas Vis" ISRC NLA449700023 REM DATE "1997" REM REPLAYGAIN_TRACK_GAIN -4.67 dB REM REPLAYGAIN_TRACK_PEAK 0.965759 INDEX 01 00:00:00 TRACK 02 AUDIO TITLE "Strijkkwartet I" PERFORMER "Mondriaan Kwartet" ISRC NLA449700024 REM DATE "1997" REM REPLAYGAIN_TRACK_GAIN -3.99 dB REM REPLAYGAIN_TRACK_PEAK 0.879944 INDEX 00 15:44:63FILE "02. Strijkkwartet I.flac" WAVE INDEX 01 00:00:00 TRACK 03 AUDIO TITLE "Expres(s)" PERFORMER "Doelensemble · Arie van Beek" ISRC NLA449700025 REM DATE "1997" REM REPLAYGAIN_TRACK_GAIN 0.30 dB REM REPLAYGAIN_TRACK_PEAK 0.977234 INDEX 00 13:18:40FILE "03. Expres(s).flac" WAVE INDEX 01 00:00:00 TRACK 04 AUDIO TITLE "Groundwork" PERFORMER "Doelenensemble · George Wiegel" ISRC NLA449700026 REM DATE "1997" REM REPLAYGAIN_TRACK_GAIN -1.66 dB REM REPLAYGAIN_TRACK_PEAK 0.823792 INDEX 00 10:22:12FILE "04. Groundwork.flac" WAVE INDEX 01 00:00:00 TRACK 05 AUDIO TITLE "Concerto for flute and chamber orchestra" PERFORMER "Eleonore Pameijer · Radio Chamber Orchestra · Ed Spanjaard" ISRC NLA449700027 REM DATE "1997" REM REPLAYGAIN_TRACK_GAIN -0.70 dB REM REPLAYGAIN_TRACK_PEAK 0.999969 INDEX 00 11:54:50FILE "05. Concerto for flute and chamber orchestra.flac" WAVE INDEX 01 00:00:00
[teatrix.ru].t9629.torrent 
Торрент: Зарегистрирован [ 2015-10-23 17:11 ] · 577B7517B3F61AA9179496188F6A6445EB0B46

Скачать .torrent

Скачать

15 KB

Статус: проверено
Скачан: 0 раз
Размер: 339 MB
terms.php



Быстрый ответ

Имя:

      
Для отправки сообщений необходимо включить JavaScript
Показать сообщения:    

Текущее время: 08-Дек 07:03

Часовой пояс: UTC + 3


Вы можете начинать темы
Вы можете отвечать на сообщения
Вы не можете редактировать свои сообщения
Вы не можете удалять свои сообщения
Вы не можете голосовать в опросах
Вы не можете прикреплять файлы к сообщениям
Вы можете скачивать файлы