(Classical) Dvorak: Cello Concerto • Dohnanyi: Konzertstuck - Raphael Wallfisch, London Symphony Orchestra, Charles Mackerras - 2012, FLAC (image+.cue) lossless


Статистика раздачи [Обновить пиров]
Размер:  264 MB   |    Зарегистрирован:  1 год 1 месяц   |    Скачан:  0 раз

Полного источника не было: Никогда

 
   
 
 
 

[Цитировать]

Dvořák: Cello Concerto • Dohnányi: Konzertstück - Raphael Wallfisch, London Symphony Orchestra, Charles Mackerras
Жанр: Classical
Страна-производитель диска: UK
Год издания диска: 2012
Издатель (лейбл): Chandos Records
Номер по каталогу: CHAN 10715 X
Дата записи: 1988
Аудиокодек: FLAC
Тип рипа: image+.cue
Битрейт аудио: lossless
Продолжительность: 64:17
Источник: собственный рип
Наличие сканов в содержимом раздачи: да
Треклист:
Antonin Dvorak (1841 – 1904)
[1]-[3] Concerto in B minor for Cello and Orchestra, Op. 104
Ernst von Dohnányi (1877 – 1960)
[4]-[6] Konzertstück in D major, Op. 12
Исполнители:
Raphael Wallfisch cello
London Symphony Orchestra
Sir Charles Mackerras

Лог создания рипа

Exact Audio Copy V1.1 from 23. June 2015
EAC extraction logfile from 1. August 2015, 20:45
Raphael Wallfisch, LSO, Charles Mackerras / Dvorak, Dohnanyi - Works for Cello & Orchestra
Used drive : HL-DT-STDVDRAM GU70N Adapter: 1 ID: 0
Read mode : SecureUtilize accurate stream : YesDefeat audio cache : YesMake use of C2 pointers : No
Read offset correction : 48Overread into Lead-In and Lead-Out : NoFill up missing offset samples with silence : YesDelete leading and trailing silent blocks : NoNull samples used in CRC calculations : YesUsed interface : Native Win32 interface for Win NT & 2000
Used output format : User Defined EncoderSelected bitrate : 128 kBit/sQuality : HighAdd ID3 tag : NoCommand line compressor : C:\Program Files (x86)\Exact Audio Copy\Flac\flac.exeAdditional command line options : -V -8 -T "Date=%year%" -T "Genre=%genre%" %source%
TOC of the extracted CD
Track | Start | Length | Start sector | End sector --------------------------------------------------------- 1 | 0:00.00 | 15:06.53 | 0 | 68002 2 | 15:06.53 | 11:59.52 | 68003 | 121979 3 | 27:06.30 | 12:57.34 | 121980 | 180288 4 | 40:03.64 | 5:33.48 | 180289 | 205311 5 | 45:37.37 | 6:51.62 | 205312 | 236198 6 | 52:29.24 | 11:49.40 | 236199 | 289413
Range status and errors
Selected range
Filename C:\temp\Dvorak, Dohnanyi - Works for Cello & Orchestra\Dvorak, Dohnanyi - Works for Cello & Orchestra.wav
Peak level 97.7 % Extraction speed 1.9 X Range quality 99.9 % Test CRC DDD786AA Copy CRC DDD786AA Copy OK
No errors occurred
AccurateRip summary
Track 1 accurately ripped (confidence 5) [4825D4D3] (AR v2)Track 2 accurately ripped (confidence 5) [A029DB43] (AR v2)Track 3 accurately ripped (confidence 5) [83779887] (AR v2)Track 4 accurately ripped (confidence 4) [F99B5731] (AR v2)Track 5 accurately ripped (confidence 4) [536C5B96] (AR v2)Track 6 accurately ripped (confidence 4) [FEFCBCF2] (AR v2)
All tracks accurately ripped
End of status report
==== Log checksum 09B3E6057A621B94DAE122AD7958E4A2E6BBD5785091697A5095087B639AC9D2 ====
[teatrix.ru].t9630.torrent 
Торрент: Зарегистрирован [ 2015-10-23 17:11 ] · 827963E16521573E5090E5F3EFC1A03B264230DB

Скачать .torrent

Скачать

22 KB

Статус: проверено
Скачан: 0 раз
Размер: 264 MB
terms.php



Быстрый ответ

Имя:

      
Для отправки сообщений необходимо включить JavaScript
Показать сообщения:    

Текущее время: 07-Дек 17:31

Часовой пояс: UTC + 3


Вы можете начинать темы
Вы можете отвечать на сообщения
Вы не можете редактировать свои сообщения
Вы не можете удалять свои сообщения
Вы не можете голосовать в опросах
Вы не можете прикреплять файлы к сообщениям
Вы можете скачивать файлы