(Classical) Wolfgang Amadeus Mozart — Piano Concertos № 22 & 23 (KV 482 & 488) (Robert Levin, Christopher Hogwood) — 1998, APE (image+.cue) lossless


Статистика раздачи [Обновить пиров]
Размер:  218 MB   |    Зарегистрирован:  1 год 1 месяц   |    Скачан:  0 раз

Полного источника не было: Никогда

 
   
 
 
 

[Цитировать]

Piano Concertos № 22 & 23 (KV 483 & 488)-
Жанр: Classical
Страна-производитель диска: Великобритания
Год издания диска: 1998
Год записи фонограммы: 1995
Издатель (лейбл): Editions de l'Oiseau-Lyre
Номер по каталогу: 452 052-2
Композитор: Wolfgang Amadeus Mozart
Исполнительский коллектив: Academy of Ancient Music, cond. Christopher Hogwood; Piano – Robert Levin
Аудио кодек: ape
Тип рипа: image+.cue
Битрейт аудио: lossless
Продолжительность: 00h58'33"
Источник: demonoid / intoclassics
Наличие сканов в содержимом раздачи: нет-Треклист:
Piano Concerto № 23 A-Dur KV 488
01. I. Allegro [00h11'26"]
02. II. Adagio [00h06'18"]
03. III. Allegro assai [00h08'02"]
Piano Concerto № 22 Es-Dur KV 482
04. I. Allegro [00h12'43"]
05. II. Andante [00h08'07"]
06. III. Allegro [00h11'56"]-

auCDtect log

-----------------------
DON'T MODIFY THIS FILE
-----------------------
PERFORMER: auCDtect Task Manager, ver. 1.5.1RC4 build 1.5.1.5
Copyright (c) 2008-2010 y-soft. All rights reserved
http://y-soft.org
ANALYZER: auCDtect: CD records authenticity detector, version 0.8.2
Copyright (c) 2004 Oleg Berngardt. All rights reserved.
Copyright (c) 2004 Alexander Djourik. All rights reserved.
FILE: Piano Concertos 22 & 23.wav
  Size: 619693244 Hash: 2A1C96E64549ECA352E672E1ABCD5BF6 Accuracy: -m0
  Conclusion: CDDA 100%
  Signature: 7A838CF297022B7F25A925758243E4D9A9E5A50E

-

Срез частот


-

CUE

REM GENRE Classical
REM DATE 1998
PERFORMER "Mozart"
TITLE "Piano Concertos 22 & 23"
FILE "Piano Concertos 22 & 23.ape" WAVE
  TRACK 01 AUDIO
    PERFORMER "Mozart"
    TITLE "Piano Concerto № 23 A-Dur KV 488 – I. Allegro"
    INDEX 01 00:00:00
  TRACK 02 AUDIO
    PERFORMER "Mozart"
    TITLE "Piano Concerto № 23 A-Dur KV 488 – II. Adagio"
    INDEX 01 11:26:25
  TRACK 03 AUDIO
    PERFORMER "Mozart"
    TITLE "Piano Concerto № 23 A-Dur KV 488 – III. Allegro assai"
    INDEX 01 17:44:38
  TRACK 04 AUDIO
    PERFORMER "Mozart"
    TITLE "Piano Concerto № 22 Es-Dur KV 482 – I. Allegro"
    INDEX 01 25:46:38
  TRACK 05 AUDIO
    PERFORMER "Mozart"
    TITLE "Piano Concerto № 22 Es-Dur KV 482 – II. Andante"
    INDEX 01 38:29:38
  TRACK 06 AUDIO
    PERFORMER "Mozart"
    TITLE "Piano Concerto № 22 Es-Dur KV 482 – III. Allegro"
    INDEX 01 46:37:00
-
[teatrix.ru].t9631.torrent 
Торрент: Зарегистрирован [ 2015-10-23 17:11 ] · 3BEF241BCE4A0D1F6258134ADED37AD7306960B7

Скачать .torrent

Скачать

18 KB

Статус: проверено
Скачан: 0 раз
Размер: 218 MB
terms.php



Быстрый ответ

Имя:

      
Для отправки сообщений необходимо включить JavaScript
Показать сообщения:    

Текущее время: 11-Дек 14:51

Часовой пояс: UTC + 3


Вы можете начинать темы
Вы можете отвечать на сообщения
Вы не можете редактировать свои сообщения
Вы не можете удалять свои сообщения
Вы не можете голосовать в опросах
Вы не можете прикреплять файлы к сообщениям
Вы можете скачивать файлы