(Classical) Aida Stucki Plays Mozart (6*CD) — 2009, APE (image+.cue) lossless


Статистика раздачи [Обновить пиров]
Размер:  1.99 GB   |    Зарегистрирован:  1 год 1 месяц   |    Скачан:  0 раз

Полного источника не было: Никогда

 
   
 
 
 

[Цитировать]

Aida Stucki Plays Mozart-
Жанр: Classical
Страна-производитель дисков: Великобритания
Год издания дисков: 2009 (12.05.2009)
Годы записи фонограмм: 1951-1977
Издатель (лейбл): Doremi Records
Номер по каталогу: DHR-7964-9
Композитор: Wolfgang Amadeus Mozart
Исполнитель: Aida Stucki (violin)
Аудио кодек: ape
Тип рипа: image+.cue
Битрейт аудио: lossless
Продолжительность: 07h33'46"
Источник: intoclassics
Наличие сканов в содержимом раздачи: нет-

ТреклистCD 1 – 01h19'03"

Violin Concerto № 5 A-Dur KV 219
01. I. Allegro aperto [00h10'03"]
02. II. Adagio [00h10'18"]
03. III. Tempo di Menuetto [00h08'44"]
Zürich Radio Orchestra, cond. Erich Schmid, Violin – Aida Stucki;
Live performance, 1960-Violin Concerto № 4 D-Dur KV 218
04. I. Allegro [00h09'35"]
05. II. Andante cantabile [00h06'57"]
06. III. Rondeau – Andante grazioso – Allegro ma non troppo [00h07'11"]
Zürich Radio Orchestra, cond. Wolfgang Fortner, Violin – Aida Stucki;
Live performance, 1958-Violin Concerto № 3 G-Dur KV 216
07. I. Allegro [00h09'42"]
08. II. Adagio [00h09'26"]
09. III. Rondeau – Allegro [00h07'08"]
Zürich Radio Orchestra, cond. Erich Schmid, Violin – Aida Stucki;
Live performance, 1960-

CUE

REM GENRE Classical
REM DATE 2009
PERFORMER "Mozart"
TITLE "Aida Stucki 1"
FILE "Aida Stucki 1.ape" WAVE
  TRACK 01 AUDIO
    PERFORMER "Mozart"
    TITLE "Violin Concerto № 5 A-Dur KV 219 – I. Allegro aperto"
    INDEX 01 00:00:00
  TRACK 02 AUDIO
    PERFORMER "Mozart"
    TITLE "Violin Concerto № 5 A-Dur KV 219 – II. Adagio"
    INDEX 01 10:02:55
  TRACK 03 AUDIO
    PERFORMER "Mozart"
    TITLE "Violin Concerto № 5 A-Dur KV 219 – III. Tempo di Menuetto"
    INDEX 01 20:20:30
  TRACK 04 AUDIO
    PERFORMER "Mozart"
    TITLE "Violin Concerto № 4 D-Dur KV 218 – I. Allegro"
    INDEX 01 29:04:31
  TRACK 05 AUDIO
    PERFORMER "Mozart"
    TITLE "Violin Concerto № 4 D-Dur KV 218 – II. Andante cantabile"
    INDEX 01 38:39:03
  TRACK 06 AUDIO
    PERFORMER "Mozart"
    TITLE "Violin Concerto № 4 D-Dur KV 218 – III. Rondeau – Andante grazioso – Allegro ma non troppo"
    INDEX 01 45:36:08
  TRACK 07 AUDIO
    PERFORMER "Mozart"
    TITLE "Violin Concerto № 3 G-Dur KV 216 – I. Allegro"
    INDEX 01 52:46:57
  TRACK 08 AUDIO
    PERFORMER "Mozart"
    TITLE "Violin Concerto № 3 G-Dur KV 216 – II. Adagio"
    INDEX 01 62:28:72
  TRACK 09 AUDIO
    PERFORMER "Mozart"
    TITLE "Violin Concerto № 3 G-Dur KV 216 – III. Rondeau – Allegro"
    INDEX 01 71:55:06

CD 2 – 01h12'55"

Violin Concerto № 1 B-Dur KV 207
01. I. Allegro moderato [00h07'24"]
02. II. Adagio [00h07'42"]
03. III. Presto [00h05'09"]
Violin Concerto № 2 D-Dur KV 211
04. I. Allegro moderato [00h09'17"]
05. II. Andante [00h06'01"]
06. III. Rondeau – Allegro [00h04'07"]
The Ton-Studio Orchestra, Stuttgart, cond. Gustav Lund, Violin – Aida Stucki;
Recorded: Nov. 1951, Stuttgart-Sinfonia Concertante for Violin, Viola and Orchestra Es-Dur KV 364
07. I. Allegro maestoso [00h13'07"]
08. II. Andante [00h13'25"]
09. III. Presto [00h06'42"]
Zürich Radio Orchestra, cond. Pierre Colombo, Violin – Aida Stucki, Viola – Hermann Friedrich;
Live performance, 1958-

CUE

REM GENRE Classical
REM DATE 2009
PERFORMER "Mozart"
TITLE "Aida Stucki 2"
FILE "Aida Stucki 2.ape" WAVE
  TRACK 01 AUDIO
    PERFORMER "Mozart"
    TITLE "Violin Concerto № 1 B-Dur KV 207 – I. Allegro moderato"
    INDEX 01 00:00:00
  TRACK 02 AUDIO
    PERFORMER "Mozart"
    TITLE "Violin Concerto № 1 B-Dur KV 207 – II. Adagio"
    INDEX 01 07:24:33
  TRACK 03 AUDIO
    PERFORMER "Mozart"
    TITLE "Violin Concerto № 1 B-Dur KV 207 – III. Presto"
    INDEX 01 15:06:70
  TRACK 04 AUDIO
    PERFORMER "Mozart"
    TITLE "Violin Concerto № 2 D-Dur KV 211 – I. Allegro moderato"
    INDEX 01 20:16:27
  TRACK 05 AUDIO
    PERFORMER "Mozart"
    TITLE "Violin Concerto № 2 D-Dur KV 211 – II. Andante"
    INDEX 01 29:33:13
  TRACK 06 AUDIO
    PERFORMER "Mozart"
    TITLE "Violin Concerto № 2 D-Dur KV 211 – III. Rondeau – Allegro"
    INDEX 01 35:34:50
  TRACK 07 AUDIO
    PERFORMER "Mozart"
    TITLE "Sinfonia Concertante Es-Dur KV 364 – I. Allegro maestoso"
    INDEX 01 39:41:40
  TRACK 08 AUDIO
    PERFORMER "Mozart"
    TITLE "Sinfonia Concertante Es-Dur KV 364 – II. Andante"
    INDEX 01 52:48:28
  TRACK 09 AUDIO
    PERFORMER "Mozart"
    TITLE "Sinfonia Concertante Es-Dur KV 364 – III. Presto"
    INDEX 01 66:12:72

CD 3 – 01h13'28"

Violin Sonata № 21 e-moll KV 304
01. I. Allegro [00h06'55"]
02. II. Tempo di Menuetto [00h04'51"]
Violin Sonata № 24 F-Dur KV 376
03. I. Allegro [00h04'49"]
04. II. Andante [00h05'37"]
05. III. Rondo – Allegretto grazioso [00h06'04"]
Violin Sonata № 22 A-Dur KV 305
06. I. Allegro di molto [00h04'44"]
07. II. Tema con Variazioni – Andante grazioso [00h10'03"]
Violin Sonata № 23 D-Dur KV 306
08. I. Allegro con spirito [00h07'40"]
09. II. Andante cantabile [00h06'04"]
10. III. Allegretto – Allegro [00h06'45"]
Violin Sonata № 20 C-Dur KV 303
11. I. Adagio – Allegro molto [00h05'14"]
12. II. Tempo di Menuetto [00h04'42"]
Violin – Aida Stucki, Piano – Christoph Lieske;
Live performance, The Stadthaus Winterthur, 1977-

CUE

REM GENRE Classical
REM DATE 2009
PERFORMER "Mozart"
TITLE "Aida Stucki 3"
FILE "Aida Stucki 3.ape" WAVE
  TRACK 01 AUDIO
    PERFORMER "Mozart"
    TITLE "Violin Sonata № 21 e-moll KV 304 – I. Allegro"
    INDEX 01 00:00:00
  TRACK 02 AUDIO
    PERFORMER "Mozart"
    TITLE "Violin Sonata № 21 e-moll KV 304 – II. Tempo di Menuetto"
    INDEX 01 06:55:02
  TRACK 03 AUDIO
    PERFORMER "Mozart"
    TITLE "Violin Sonata № 24 F-Dur KV 376 – I. Allegro"
    INDEX 01 11:46:20
  TRACK 04 AUDIO
    PERFORMER "Mozart"
    TITLE "Violin Sonata № 24 F-Dur KV 376 – II. Andante"
    INDEX 01 16:35:43
  TRACK 05 AUDIO
    PERFORMER "Mozart"
    TITLE "Violin Sonata № 24 F-Dur KV 376 – III. Rondo – Allegretto grazioso"
    INDEX 01 22:12:18
  TRACK 06 AUDIO
    PERFORMER "Mozart"
    TITLE "Violin Sonata № 22 A-Dur KV 305 – I. Allegro di molto"
    INDEX 01 28:15:74
  TRACK 07 AUDIO
    PERFORMER "Mozart"
    TITLE "Violin Sonata № 22 A-Dur KV 305 – II. Tema con Variazioni – Andante grazioso"
    INDEX 01 33:00:29
  TRACK 08 AUDIO
    PERFORMER "Mozart"
    TITLE "Violin Sonata № 23 D-Dur KV 306 – I. Allegro con spirito"
    INDEX 01 43:03:10
  TRACK 09 AUDIO
    PERFORMER "Mozart"
    TITLE "Violin Sonata № 23 D-Dur KV 306 – II. Andante cantabile"
    INDEX 01 50:43:46
  TRACK 10 AUDIO
    PERFORMER "Mozart"
    TITLE "Violin Sonata № 23 D-Dur KV 306 – III. Allegretto – Allegro"
    INDEX 01 56:48:06
  TRACK 11 AUDIO
    PERFORMER "Mozart"
    TITLE "Violin Sonata № 20 C-Dur KV 303 – I. Adagio – Allegro molto"
    INDEX 01 63:32:52
  TRACK 12 AUDIO
    PERFORMER "Mozart"
    TITLE "Violin Sonata № 20 C-Dur KV 303 – II. Tempo di Menuetto"
    INDEX 01 68:46:16

CD 4 – 01h16'43"

Violin Sonata № 33 Es-Dur KV 481
01. I. Allegro molto [00h07'12"]
02. II. Adagio [00h08'43"]
03. III. Tema – Allegretto [00h07'57"]
Violin Sonata № 32 B-Dur KV 454
04. I. Largo – Allegro [00h07'11"]
05. II. Andante [00h08'19"]
06. III. Allegretto [00h06'56"]
Violin Sonata № 17 C-Dur KV 296
07. I. Allegro vivace [00h06'30"]
08. II. Andante sostenuto [00h06'04"]
09. III. Rondo – Allegro [00h04'41"]
Violin Sonata № 18 G-Dur KV 301
10. I. Allegro con spirito [00h07'39"]
11. II. Allegro [00h05'31"]
Violin – Aida Stucki, Piano – Christoph Lieske;
Live performance, The Stadthaus Winterthur, 1977-

CUE

REM GENRE Classical
REM DATE 2009
PERFORMER "Mozart"
TITLE "Aida Stucki 4"
FILE "Aida Stucki 4.ape" WAVE
  TRACK 01 AUDIO
    PERFORMER "Mozart"
    TITLE "Violin Sonata № 33 Es-Dur KV 481 – I. Allegro molto"
    INDEX 01 00:00:00
  TRACK 02 AUDIO
    PERFORMER "Mozart"
    TITLE "Violin Sonata № 33 Es-Dur KV 481 – II. Adagio"
    INDEX 01 07:11:45
  TRACK 03 AUDIO
    PERFORMER "Mozart"
    TITLE "Violin Sonata № 33 Es-Dur KV 481 – III. Tema – Allegretto"
    INDEX 01 15:54:39
  TRACK 04 AUDIO
    PERFORMER "Mozart"
    TITLE "Violin Sonata № 32 B-Dur KV 454 – I. Largo – Allegro"
    INDEX 01 23:51:34
  TRACK 05 AUDIO
    PERFORMER "Mozart"
    TITLE "Violin Sonata № 32 B-Dur KV 454 – II. Andante"
    INDEX 01 31:02:52
  TRACK 06 AUDIO
    PERFORMER "Mozart"
    TITLE "Violin Sonata № 32 B-Dur KV 454 – III. Allegretto"
    INDEX 01 39:21:54
  TRACK 07 AUDIO
    PERFORMER "Mozart"
    TITLE "Violin Sonata № 17 C-Dur KV 296 – I. Allegro vivace"
    INDEX 01 46:17:72
  TRACK 08 AUDIO
    PERFORMER "Mozart"
    TITLE "Violin Sonata № 17 C-Dur KV 296 – II. Andante sostenuto"
    INDEX 01 52:48:16
  TRACK 09 AUDIO
    PERFORMER "Mozart"
    TITLE "Violin Sonata № 17 C-Dur KV 296 – III. Rondo – Allegro"
    INDEX 01 58:52:34
  TRACK 10 AUDIO
    PERFORMER "Mozart"
    TITLE "Violin Sonata № 18 G-Dur KV 301 – I. Allegro con spirito"
    INDEX 01 63:33:31
  TRACK 11 AUDIO
    PERFORMER "Mozart"
    TITLE "Violin Sonata № 18 G-Dur KV 301 – II. Allegro"
    INDEX 01 71:12:07

CD 5 – 01h14'30"

Violin Sonata № 25 F-Dur KV 377
01. I. Allegro [00h04'37"]
02. II. Tema – Andante [00h09'51"]
03. III. Tempo di Menuetto, un poco Allegretto [00h05'23"]
Violin Sonata № 26 B-Dur KV 378
04. I. Allegro moderato [00h09'04"]
05. II. Andantino sostenuto e cantabile [00h06'25"]
06. III. Rondo – Allegro [00h04'24"]
Violin Sonata № 27 G-Dur KV 379
07. I. Adagio – Allegro [00h07'39"]
08. II. Tema – Andantino cantabile – Allegretto [00h10'20"]
Violin Sonata № 28 Es-Dur KV 380
09. I. Allegro [00h06'53"]
10. II. Andante con moto [00h05'40"]
11. III. Rondo – Allegro [00h04'13"]
Violin – Aida Stucki, Piano – Christoph Lieske;
Live performance, The Stadthaus Winterthur, 1977-

CUE

REM GENRE Classical
REM DATE 2009
PERFORMER "Mozart"
TITLE "Aida Stucki 5"
FILE "Aida Stucki 5.ape" WAVE
  TRACK 01 AUDIO
    PERFORMER "Mozart"
    TITLE "Violin Sonata № 25 F-Dur KV 377 – I. Allegro"
    INDEX 01 00:00:00
  TRACK 02 AUDIO
    PERFORMER "Mozart"
    TITLE "Violin Sonata № 25 F-Dur KV 377 – II. Tema – Andante"
    INDEX 01 04:37:06
  TRACK 03 AUDIO
    PERFORMER "Mozart"
    TITLE "Violin Sonata № 25 F-Dur KV 377 – III. Tempo di Menuetto, un poco Allegretto"
    INDEX 01 14:28:08
  TRACK 04 AUDIO
    PERFORMER "Mozart"
    TITLE "Violin Sonata № 26 B-Dur KV 378 – I. Allegro moderato"
    INDEX 01 19:51:09
  TRACK 05 AUDIO
    PERFORMER "Mozart"
    TITLE "Violin Sonata № 26 B-Dur KV 378 – II. Andantino sostenuto e cantabile"
    INDEX 01 28:55:36
  TRACK 06 AUDIO
    PERFORMER "Mozart"
    TITLE "Violin Sonata № 26 B-Dur KV 378 – III. Rondo – Allegro"
    INDEX 01 35:20:04
  TRACK 07 AUDIO
    PERFORMER "Mozart"
    TITLE "Violin Sonata № 27 G-Dur KV 379 – I.  Adagio – Allegro"
    INDEX 01 39:44:34
  TRACK 08 AUDIO
    PERFORMER "Mozart"
    TITLE "Violin Sonata № 27 G-Dur KV 379 – II. Tema – Andantino cantabile – Allegretto"
    INDEX 01 47:22:72
  TRACK 09 AUDIO
    PERFORMER "Mozart"
    TITLE "Violin Sonata № 28 Es-Dur KV 380 – I. Allegro"
    INDEX 01 57:43:15
  TRACK 10 AUDIO
    PERFORMER "Mozart"
    TITLE "Violin Sonata № 28 Es-Dur KV 380 – II. Andante con moto"
    INDEX 01 64:36:36
  TRACK 11 AUDIO
    PERFORMER "Mozart"
    TITLE "Violin Sonata № 28 Es-Dur KV 380 – III. Rondo – Allegro"
    INDEX 01 70:16:57

CD 6 – 01h17'07"

Violin Sonata № 35 A-Dur KV 526
01. I. Molto allegro [00h06'34"]
02. II. Andante [00h08'13"]
03. III. Presto [00h07'03"]
Violin Sonata № 32 F-Dur KV 547
04. I. Andante cantabile [00h04'50"]
05. II. Allegro [00h05'54"]
06. III. Andante con Variazioni [00h07'27"]
Violin Sonata № 19 Es-Dur KV 302
07. I. Allegro [00h05'18"]
08. II. Rondo – Andante grazioso [00h05'43"]
Violin – Aida Stucki, Piano – Christoph Lieske;
Live performance, The Stadthaus Winterthur, 1977-Violin Concerto № 7 D-Dur KV 271a
09. I. Allegro maestoso [00h10'55"]
10. II. Andante [00h07'08"]
11. III. Rondo – Allegro [00h08'01"]
The Lausanne Chamber Orchestra, cond. Victor Desarzens, Violin – Aida Stucki;
Recorded 1952-

CUE

REM GENRE Classical
REM DATE 2009
PERFORMER "Mozart"
TITLE "Aida Stucki 6"
FILE "Aida Stucki 6.ape" WAVE
  TRACK 01 AUDIO
    PERFORMER "Mozart"
    TITLE "Violin Sonata № 35 A-Dur KV 526 – I. Molto allegro"
    INDEX 01 00:00:00
  TRACK 02 AUDIO
    PERFORMER "Mozart"
    TITLE "Violin Sonata № 35 A-Dur KV 526 – II. Andante"
    INDEX 01 06:34:13
  TRACK 03 AUDIO
    PERFORMER "Mozart"
    TITLE "Violin Sonata № 35 A-Dur KV 526 – III. Presto"
    INDEX 01 14:47:45
  TRACK 04 AUDIO
    PERFORMER "Mozart"
    TITLE "Violin Sonata № 32 F-Dur KV 547 – I. Andante cantabile"
    INDEX 01 21:50:70
  TRACK 05 AUDIO
    PERFORMER "Mozart"
    TITLE "Violin Sonata № 32 F-Dur KV 547 – II. Allegro"
    INDEX 01 26:41:31
  TRACK 06 AUDIO
    PERFORMER "Mozart"
    TITLE "Violin Sonata № 32 F-Dur KV 547 – III. Andante con Variazioni"
    INDEX 01 32:35:23
  TRACK 07 AUDIO
    PERFORMER "Mozart"
    TITLE "Violin Sonata № 19 Es-Dur KV 302 – I. Allegro"
    INDEX 01 40:02:24
  TRACK 08 AUDIO
    PERFORMER "Mozart"
    TITLE "Violin Sonata № 19 Es-Dur KV 302 – II. Rondo – Andante grazioso"
    INDEX 01 45:20:13
  TRACK 09 AUDIO
    PERFORMER "Mozart"
    TITLE "Violin Concerto № 7 D-Dur KV 271a – I. Allegro maestoso"
    INDEX 01 51:03:07
  TRACK 10 AUDIO
    PERFORMER "Mozart"
    TITLE "Violin Concerto № 7 D-Dur KV 271a – II. Andante"
    INDEX 01 61:58:31
  TRACK 11 AUDIO
    PERFORMER "Mozart"
    TITLE "Violin Concerto № 7 D-Dur KV 271a – III. Rondo – Allegro"
    INDEX 01 69:06:38

-

auCDtect log

-----------------------
DON'T MODIFY THIS FILE
-----------------------
PERFORMER: auCDtect Task Manager, ver. 1.5.1RC4 build 1.5.1.5
Copyright (c) 2008-2010 y-soft. All rights reserved
http://y-soft.org
ANALYZER: auCDtect: CD records authenticity detector, version 0.8.2
Copyright (c) 2004 Oleg Berngardt. All rights reserved.
Copyright (c) 2004 Alexander Djourik. All rights reserved.
FILE: Aida Stucki 6.wav
  Size: 816268700 Hash: E6AFA6C5D7D3B3C47376B08FA251B90D Accuracy: -m0
  Conclusion: CDDA 99%
  Signature: 0F964B4A08F76133C8444F0F5D9571C39EA6B684
FILE: Aida Stucki 5.wav
  Size: 788489228 Hash: AC928D37B2E70185613E7F66A62FFDBD Accuracy: -m0
  Conclusion: CDDA 100%
  Signature: 13E070CCD1FFB9DFF835DAC14EEB5A526AC81ED5
FILE: Aida Stucki 4.wav
  Size: 812049212 Hash: C189B419C22045C0AEFC7C40FEC5AB17 Accuracy: -m0
  Conclusion: CDDA 100%
  Signature: 256E12D2C00A5291A9E2560292F84EA80345C5E4
FILE: Aida Stucki 3.wav
  Size: 777608876 Hash: 1BAC706CD2C70FBC2D500CB6E6F450C5 Accuracy: -m0
  Conclusion: CDDA 100%
  Signature: 162BEF56A310CEE81FBBF90710BD06DB8EB4FB67
FILE: Aida Stucki 2.wav
  Size: 771672428 Hash: 371E3958B3A57227CC3384FE336DB6A5 Accuracy: -m0
  Conclusion: CDDA 100%
  Signature: C5E8C3F4FBB4E298A4DF72234D23DDD243DC8B53
FILE: Aida Stucki 1.wav
  Size: 836662892 Hash: E23326E064A4FB6B09BA61BB28D00432 Accuracy: -m0
  Conclusion: CDDA 100%
  Signature: B629C3E7EA1CEE15E0C4B0B56D608F63423EB65D

-

Срез частот

-
[teatrix.ru].t9632.torrent 
Торрент: Зарегистрирован [ 2015-10-23 17:11 ] · 4735D694BEE3D8A30B814122D5F26EC8EA76D658

Скачать .torrent

Скачать

21 KB

Статус: проверено
Скачан: 0 раз
Размер: 1.99 GB
terms.php



Быстрый ответ

Имя:

      
Для отправки сообщений необходимо включить JavaScript
Показать сообщения:    

Текущее время: 04-Дек 06:56

Часовой пояс: UTC + 3


Вы можете начинать темы
Вы можете отвечать на сообщения
Вы не можете редактировать свои сообщения
Вы не можете удалять свои сообщения
Вы не можете голосовать в опросах
Вы не можете прикреплять файлы к сообщениям
Вы можете скачивать файлы