(Classical) Johann Sebastian Bach · The Art Of Fugue / Die Kunst der Fuge, BWV 1080 & Keyboard Concertos, BWV 1044, 1052, 1054, 1057 (Francesca Vicari, Claudio Rufa, Rinaldo Alessandrini & Italiano Concerto) · 2003, FLAC (tracks+.cue) lossles


Статистика раздачи [Обновить пиров]
Размер:  760 MB   |    Зарегистрирован:  1 год 1 месяц   |    Скачан:  1 раз

Полного источника не было: 2 месяца 7 дней

 
   
 
 
 

[Цитировать]

Johann Sebastian Bach
The Art Of Fugue
Keyboard Concertos

Жанр: classical
Страна-производитель диска:
Год издания диска: 2003
Издатель: Opus 111 / Naïve
Номер по каталогу: OP 20011
Дата записи: 1997, 1999
Аудиокодек: FLAC
Тип рипа: tracks+.cue
Битрейт аудио: lossless
Продолжительность: 02:26:01
Источник: скачано с what.cd
Буклет в содержимом раздачи отсутствует
Исполнители:
Francesca Vicari (violin, II:10–12)
Claudio Rufa (flute, II:10–12)
Rinaldo Alessandrini (harpsichord & conductor, I–II)
Italiano Concerto (I–II)

CD I. The Art Of Fugue

01. Contrapunctus 1 (2:46)
02. Contrapunctus 2 (2:29)
03. Contrapunctus 3 (2:27)
04. Contrapunctus 4 (3:37)
05. Contrapunctus 5 (3:34)
06. Canon per Augmentationem in Contrario Motu (5:00)
07. Contrapunctus 6. a 4 in Stylo Francese (5:48)
08. Canon alla Ottava (2:33)
09. Contrapunctus 7. a 4 per Augmentationem et Diminutionem (4:08)
10. Contrapunctus 8. a 3 (5:15)
11. Contrapunctus 9. a 4. alla Duodecima (2:27)
12. Contrapunctus 10. a 4. alla Decima (3:52)
13. Canon alla Decima [in] Contrapunto alla Terza (5:21)
14. Contrapunctus 11. a 4 (5:37)
15. Contrapunctus 12 (rectus) (1:33)
16. Contrapunctus 13 (rectus) (2:13)
17. Contrapunctus 12 (inversus) (1:44)
18. Contrapunctus 13 (inversus) (2:12)
19. Canon alla Duodecima in Contrapunto alla Quinta (4:08)
20. Contrapunctus 14 (Fuga a 4 Soggetti) (7:43)

Лог создания рипа

X Lossless Decoder version 20100518 (120.3)
XLD extraction logfile from 2010-06-02 01:25:58 -0700
Rinaldo Alessandrini, Concerto Italiano / Bach: The Art of Fugue & Keyboard Concertos [Disc 1]
Used drive : HL-DT-ST DVDRW GS21N (revision SA18)
Use cdparanoia mode : YES (CDParanoia III 10.2 engine)Disable audio cache : OK for the drive with cache less than 2750KBMake use of C2 pointers : NORead offset correction : 667Max retry count : 100
TOC of the extracted CD Track | Start | Length | Start sector | End sector --------------------------------------------------------- 1 | 00:00:00 | 02:45:50 | 0 | 12424 2 | 02:45:50 | 02:29:17 | 12425 | 23616 3 | 05:14:67 | 02:27:28 | 23617 | 34669 4 | 07:42:20 | 03:37:10 | 34670 | 50954 5 | 11:19:30 | 03:33:60 | 50955 | 66989 6 | 14:53:15 | 04:59:42 | 66990 | 89456 7 | 19:52:57 | 05:48:30 | 89457 | 115586 8 | 25:41:12 | 02:32:58 | 115587 | 127044 9 | 28:13:70 | 04:07:70 | 127045 | 145639 10 | 32:21:65 | 05:14:60 | 145640 | 169249 11 | 37:36:50 | 02:27:10 | 169250 | 180284 12 | 40:03:60 | 03:52:12 | 180285 | 197696 13 | 43:55:72 | 05:21:15 | 197697 | 221786 14 | 49:17:12 | 05:37:35 | 221787 | 247096 15 | 54:54:47 | 01:33:33 | 247097 | 254104 16 | 56:28:05 | 02:12:57 | 254105 | 264061 17 | 58:40:62 | 01:43:58 | 264062 | 271844 18 | 60:24:45 | 02:12:12 | 271845 | 281756 19 | 62:36:57 | 04:08:03 | 281757 | 300359 20 | 66:44:60 | 07:43:00 | 300360 | 335084
List of alternate offset correction values # | Absolute | Relative | Confidence ------------------------------------------ 1 | 1331 | 664 | 6
Track 01 Filename : /Users/John/Transfers/Bach, J.S. - The Art of Fugue & Keyboard Concertos (Rinaldo Alessandrini, 2003) [FLAC]/Disc 1 - The Art of Fugue/01 Rinaldo Alessandrini, Concerto Italiano - Contrapunctus I.flac
Pre-gap length : 00:02:00
CRC32 hash (test run) : 8E3FE2C1 CRC32 hash : 8E3FE2C1 CRC32 hash (skip zero) : 34B2E742 AccurateRip signature : 88729575 ->Accurately ripped! (confidence 7) Statistics Read error : 0 Skipped (treated as error) : 0 Edge jitter error (maybe fixed) : 0 Atom jitter error (maybe fixed) : 0 Drift error (maybe fixed) : 0 Dropped bytes error (maybe fixed) : 0 Duplicated bytes error (maybe fixed) : 0 Inconsistency in error sectors : 0
Track 02 Filename : /Users/John/Transfers/Bach, J.S. - The Art of Fugue & Keyboard Concertos (Rinaldo Alessandrini, 2003) [FLAC]/Disc 1 - The Art of Fugue/02 Rinaldo Alessandrini, Concerto Italiano - Contrapunctus II.flac
CRC32 hash (test run) : A65FFBCE CRC32 hash : A65FFBCE CRC32 hash (skip zero) : 8A9C006A AccurateRip signature : 6E6C8ECB ->Accurately ripped! (confidence 6) Statistics Read error : 0 Skipped (treated as error) : 0 Edge jitter error (maybe fixed) : 0 Atom jitter error (maybe fixed) : 0 Drift error (maybe fixed) : 0 Dropped bytes error (maybe fixed) : 0 Duplicated bytes error (maybe fixed) : 0 Inconsistency in error sectors : 0
Track 03 Filename : /Users/John/Transfers/Bach, J.S. - The Art of Fugue & Keyboard Concertos (Rinaldo Alessandrini, 2003) [FLAC]/Disc 1 - The Art of Fugue/03 Rinaldo Alessandrini, Concerto Italiano - Contrapunctus III.flac
CRC32 hash (test run) : 0F4E0D29 CRC32 hash : 0F4E0D29 CRC32 hash (skip zero) : 33E77AD2 AccurateRip signature : 31CF62C3 ->Accurately ripped! (confidence 6) Statistics Read error : 0 Skipped (treated as error) : 0 Edge jitter error (maybe fixed) : 0 Atom jitter error (maybe fixed) : 0 Drift error (maybe fixed) : 0 Dropped bytes error (maybe fixed) : 0 Duplicated bytes error (maybe fixed) : 0 Inconsistency in error sectors : 0
Track 04 Filename : /Users/John/Transfers/Bach, J.S. - The Art of Fugue & Keyboard Concertos (Rinaldo Alessandrini, 2003) [FLAC]/Disc 1 - The Art of Fugue/04 Rinaldo Alessandrini, Concerto Italiano - Contrapunctus IV.flac
CRC32 hash (test run) : FB952DA1 CRC32 hash : FB952DA1 CRC32 hash (skip zero) : E5676071 AccurateRip signature : 999E87E6 ->Accurately ripped! (confidence 6) Statistics Read error : 0 Skipped (treated as error) : 0 Edge jitter error (maybe fixed) : 0 Atom jitter error (maybe fixed) : 0 Drift error (maybe fixed) : 0 Dropped bytes error (maybe fixed) : 0 Duplicated bytes error (maybe fixed) : 0 Inconsistency in error sectors : 0
Track 05 Filename : /Users/John/Transfers/Bach, J.S. - The Art of Fugue & Keyboard Concertos (Rinaldo Alessandrini, 2003) [FLAC]/Disc 1 - The Art of Fugue/05 Rinaldo Alessandrini, Concerto Italiano - Contrapunctus V.flac
CRC32 hash (test run) : 44BA55F5 CRC32 hash : 44BA55F5 CRC32 hash (skip zero) : 8EADA217 AccurateRip signature : 32439973 ->Accurately ripped! (confidence 6) Statistics Read error : 0 Skipped (treated as error) : 0 Edge jitter error (maybe fixed) : 0 Atom jitter error (maybe fixed) : 0 Drift error (maybe fixed) : 0 Dropped bytes error (maybe fixed) : 0 Duplicated bytes error (maybe fixed) : 0 Inconsistency in error sectors : 0
Track 06 Filename : /Users/John/Transfers/Bach, J.S. - The Art of Fugue & Keyboard Concertos (Rinaldo Alessandrini, 2003) [FLAC]/Disc 1 - The Art of Fugue/06 Rinaldo Alessandrini, Concerto Italiano - Canon I per Augmentationem in Contrario motu.flac
CRC32 hash (test run) : 4D41A846 CRC32 hash : 4D41A846 CRC32 hash (skip zero) : 75BE1897 AccurateRip signature : 028D7510 ->Accurately ripped! (confidence 6) Statistics Read error : 0 Skipped (treated as error) : 0 Edge jitter error (maybe fixed) : 0 Atom jitter error (maybe fixed) : 0 Drift error (maybe fixed) : 0 Dropped bytes error (maybe fixed) : 0 Duplicated bytes error (maybe fixed) : 0 Inconsistency in error sectors : 0
Track 07 Filename : /Users/John/Transfers/Bach, J.S. - The Art of Fugue & Keyboard Concertos (Rinaldo Alessandrini, 2003) [FLAC]/Disc 1 - The Art of Fugue/07 Rinaldo Alessandrini, Concerto Italiano - Contrapunctus VI in Style Francese.flac
CRC32 hash (test run) : 04A3C20E CRC32 hash : 04A3C20E CRC32 hash (skip zero) : 5F063A5B AccurateRip signature : E6DBC35E ->Accurately ripped! (confidence 6) Statistics Read error : 0 Skipped (treated as error) : 0 Edge jitter error (maybe fixed) : 0 Atom jitter error (maybe fixed) : 0 Drift error (maybe fixed) : 0 Dropped bytes error (maybe fixed) : 0 Duplicated bytes error (maybe fixed) : 0 Inconsistency in error sectors : 0
Track 08 Filename : /Users/John/Transfers/Bach, J.S. - The Art of Fugue & Keyboard Concertos (Rinaldo Alessandrini, 2003) [FLAC]/Disc 1 - The Art of Fugue/08 Rinaldo Alessandrini, Concerto Italiano - Canon II alla ottava.flac
CRC32 hash (test run) : 03D4E898 CRC32 hash : 03D4E898 CRC32 hash (skip zero) : C3EAE512 AccurateRip signature : 75764858 ->Accurately ripped! (confidence 6) Statistics Read error : 0 Skipped (treated as error) : 0 Edge jitter error (maybe fixed) : 0 Atom jitter error (maybe fixed) : 0 Drift error (maybe fixed) : 0 Dropped bytes error (maybe fixed) : 0 Duplicated bytes error (maybe fixed) : 0 Inconsistency in error sectors : 0
Track 09 Filename : /Users/John/Transfers/Bach, J.S. - The Art of Fugue & Keyboard Concertos (Rinaldo Alessandrini, 2003) [FLAC]/Disc 1 - The Art of Fugue/09 Rinaldo Alessandrini, Concerto Italiano - Contrapunctus VII per Augmentionem et Diminutionem.flac
CRC32 hash (test run) : D19A94EE CRC32 hash : D19A94EE CRC32 hash (skip zero) : 8CC5FC14 AccurateRip signature : 32031E25 ->Accurately ripped! (confidence 6) Statistics Read error : 0 Skipped (treated as error) : 0 Edge jitter error (maybe fixed) : 0 Atom jitter error (maybe fixed) : 0 Drift error (maybe fixed) : 0 Dropped bytes error (maybe fixed) : 0 Duplicated bytes error (maybe fixed) : 0 Inconsistency in error sectors : 0
Track 10 Filename : /Users/John/Transfers/Bach, J.S. - The Art of Fugue & Keyboard Concertos (Rinaldo Alessandrini, 2003) [FLAC]/Disc 1 - The Art of Fugue/10 Rinaldo Alessandrini, Concerto Italiano - Contrapunctus VIII.flac
CRC32 hash (test run) : 7AD2E5C3 CRC32 hash : 7AD2E5C3 CRC32 hash (skip zero) : 9E70E7B6 AccurateRip signature : CE8F4A62 ->Accurately ripped! (confidence 6) Statistics Read error : 0 Skipped (treated as error) : 0 Edge jitter error (maybe fixed) : 0 Atom jitter error (maybe fixed) : 0 Drift error (maybe fixed) : 0 Dropped bytes error (maybe fixed) : 0 Duplicated bytes error (maybe fixed) : 0 Inconsistency in error sectors : 0
Track 11 Filename : /Users/John/Transfers/Bach, J.S. - The Art of Fugue & Keyboard Concertos (Rinaldo Alessandrini, 2003) [FLAC]/Disc 1 - The Art of Fugue/11 Rinaldo Alessandrini, Concerto Italiano - Contrapunctus IX alla Duodecima.flac
CRC32 hash (test run) : D174C569 CRC32 hash : D174C569 CRC32 hash (skip zero) : ECCC6590 AccurateRip signature : 07ED2F9D ->Accurately ripped! (confidence 6) Statistics Read error : 0 Skipped (treated as error) : 0 Edge jitter error (maybe fixed) : 0 Atom jitter error (maybe fixed) : 0 Drift error (maybe fixed) : 0 Dropped bytes error (maybe fixed) : 0 Duplicated bytes error (maybe fixed) : 0 Inconsistency in error sectors : 0
Track 12 Filename : /Users/John/Transfers/Bach, J.S. - The Art of Fugue & Keyboard Concertos (Rinaldo Alessandrini, 2003) [FLAC]/Disc 1 - The Art of Fugue/12 Rinaldo Alessandrini, Concerto Italiano - Contrapunctus X alla Decima.flac
CRC32 hash (test run) : 1B54EB35 CRC32 hash : 1B54EB35 CRC32 hash (skip zero) : ED8D5D91 AccurateRip signature : D7F4CCC3 ->Accurately ripped! (confidence 6) Statistics Read error : 0 Skipped (treated as error) : 0 Edge jitter error (maybe fixed) : 0 Atom jitter error (maybe fixed) : 0 Drift error (maybe fixed) : 0 Dropped bytes error (maybe fixed) : 0 Duplicated bytes error (maybe fixed) : 0 Inconsistency in error sectors : 0
Track 13 Filename : /Users/John/Transfers/Bach, J.S. - The Art of Fugue & Keyboard Concertos (Rinaldo Alessandrini, 2003) [FLAC]/Disc 1 - The Art of Fugue/13 Rinaldo Alessandrini, Concerto Italiano - Canon III alle Decima Contrapunto alla Terza.flac
CRC32 hash (test run) : 7F2C8025 CRC32 hash : 7F2C8025 CRC32 hash (skip zero) : 3F92E6FF AccurateRip signature : 82C994CB ->Accurately ripped! (confidence 6) Statistics Read error : 0 Skipped (treated as error) : 0 Edge jitter error (maybe fixed) : 0 Atom jitter error (maybe fixed) : 0 Drift error (maybe fixed) : 0 Dropped bytes error (maybe fixed) : 0 Duplicated bytes error (maybe fixed) : 0 Inconsistency in error sectors : 0
Track 14 Filename : /Users/John/Transfers/Bach, J.S. - The Art of Fugue & Keyboard Concertos (Rinaldo Alessandrini, 2003) [FLAC]/Disc 1 - The Art of Fugue/14 Rinaldo Alessandrini, Concerto Italiano - Contrapunctus XI.flac
CRC32 hash (test run) : CB3DA3A0 CRC32 hash : CB3DA3A0 CRC32 hash (skip zero) : 27BB397F AccurateRip signature : A0368872 ->Accurately ripped! (confidence 6) Statistics Read error : 0 Skipped (treated as error) : 0 Edge jitter error (maybe fixed) : 0 Atom jitter error (maybe fixed) : 0 Drift error (maybe fixed) : 0 Dropped bytes error (maybe fixed) : 0 Duplicated bytes error (maybe fixed) : 0 Inconsistency in error sectors : 0
Track 15 Filename : /Users/John/Transfers/Bach, J.S. - The Art of Fugue & Keyboard Concertos (Rinaldo Alessandrini, 2003) [FLAC]/Disc 1 - The Art of Fugue/15 Rinaldo Alessandrini, Concerto Italiano - Contrapunctus XII rectus.flac
CRC32 hash (test run) : BA5F991A CRC32 hash : BA5F991A CRC32 hash (skip zero) : 2CEA2CCD AccurateRip signature : E4034016 ->Accurately ripped! (confidence 6) Statistics Read error : 0 Skipped (treated as error) : 0 Edge jitter error (maybe fixed) : 0 Atom jitter error (maybe fixed) : 0 Drift error (maybe fixed) : 0 Dropped bytes error (maybe fixed) : 0 Duplicated bytes error (maybe fixed) : 0 Inconsistency in error sectors : 0
Track 16 Filename : /Users/John/Transfers/Bach, J.S. - The Art of Fugue & Keyboard Concertos (Rinaldo Alessandrini, 2003) [FLAC]/Disc 1 - The Art of Fugue/16 Rinaldo Alessandrini, Concerto Italiano - Contrapunctus XIII rectus.flac
CRC32 hash (test run) : 3F11FFC8 CRC32 hash : 3F11FFC8 CRC32 hash (skip zero) : 4A0899E5 AccurateRip signature : 14CD1AEB ->Accurately ripped! (confidence 6) Statistics Read error : 0 Skipped (treated as error) : 0 Edge jitter error (maybe fixed) : 0 Atom jitter error (maybe fixed) : 0 Drift error (maybe fixed) : 0 Dropped bytes error (maybe fixed) : 0 Duplicated bytes error (maybe fixed) : 0 Inconsistency in error sectors : 0
Track 17 Filename : /Users/John/Transfers/Bach, J.S. - The Art of Fugue & Keyboard Concertos (Rinaldo Alessandrini, 2003) [FLAC]/Disc 1 - The Art of Fugue/17 Rinaldo Alessandrini, Concerto Italiano - Contrapunctus XII inversus.flac
CRC32 hash (test run) : 4B4AE02F CRC32 hash : 4B4AE02F CRC32 hash (skip zero) : D0419824 AccurateRip signature : AAA0A253 ->Accurately ripped! (confidence 6) Statistics Read error : 0 Skipped (treated as error) : 0 Edge jitter error (maybe fixed) : 0 Atom jitter error (maybe fixed) : 0 Drift error (maybe fixed) : 0 Dropped bytes error (maybe fixed) : 0 Duplicated bytes error (maybe fixed) : 0 Inconsistency in error sectors : 0
Track 18 Filename : /Users/John/Transfers/Bach, J.S. - The Art of Fugue & Keyboard Concertos (Rinaldo Alessandrini, 2003) [FLAC]/Disc 1 - The Art of Fugue/18 Rinaldo Alessandrini, Concerto Italiano - Contrapunctus XIII inversus.flac
CRC32 hash (test run) : 711FACEB CRC32 hash : 711FACEB CRC32 hash (skip zero) : DA958C8E AccurateRip signature : 6D448452 ->Accurately ripped! (confidence 6) Statistics Read error : 0 Skipped (treated as error) : 0 Edge jitter error (maybe fixed) : 0 Atom jitter error (maybe fixed) : 0 Drift error (maybe fixed) : 0 Dropped bytes error (maybe fixed) : 0 Duplicated bytes error (maybe fixed) : 0 Inconsistency in error sectors : 0
Track 19 Filename : /Users/John/Transfers/Bach, J.S. - The Art of Fugue & Keyboard Concertos (Rinaldo Alessandrini, 2003) [FLAC]/Disc 1 - The Art of Fugue/19 Rinaldo Alessandrini, Concerto Italiano - Canon 4 Duodecima in Contrapunto alla Quinta.flac
CRC32 hash (test run) : 72540D81 CRC32 hash : 72540D81 CRC32 hash (skip zero) : A38C6C4D AccurateRip signature : 92F6ACFC ->Accurately ripped! (confidence 6) Statistics Read error : 0 Skipped (treated as error) : 0 Edge jitter error (maybe fixed) : 0 Atom jitter error (maybe fixed) : 0 Drift error (maybe fixed) : 0 Dropped bytes error (maybe fixed) : 0 Duplicated bytes error (maybe fixed) : 0 Inconsistency in error sectors : 0
Track 20 Filename : /Users/John/Transfers/Bach, J.S. - The Art of Fugue & Keyboard Concertos (Rinaldo Alessandrini, 2003) [FLAC]/Disc 1 - The Art of Fugue/20 Rinaldo Alessandrini, Concerto Italiano - Contrapunctus XV.flac
CRC32 hash (test run) : 5FF5CE15 CRC32 hash : 5FF5CE15 CRC32 hash (skip zero) : B721984E AccurateRip signature : E1642504 ->Accurately ripped! (confidence 6) Statistics Read error : 0 Skipped (treated as error) : 0 Edge jitter error (maybe fixed) : 0 Atom jitter error (maybe fixed) : 0 Drift error (maybe fixed) : 0 Dropped bytes error (maybe fixed) : 0 Duplicated bytes error (maybe fixed) : 0 Inconsistency in error sectors : 0
No errors occurred
End of status report

Содержание индексной карты (.CUE)

TITLE "The Art Of Fugue"PERFORMER "Concerto Italiano, Rinaldo Alessandrini"REM DATE 2003REM DISCNUMBER 1REM DISCID 38117314FILE "01. Contrapunctus 1.wav" WAVE TRACK 01 AUDIO TITLE "Contrapunctus 1" INDEX 01 00:00:00FILE "02. Contrapunctus 2.wav" WAVE TRACK 02 AUDIO TITLE "Contrapunctus 2" INDEX 01 00:00:00FILE "03. Contrapunctus 3.wav" WAVE TRACK 03 AUDIO TITLE "Contrapunctus 3" INDEX 01 00:00:00FILE "04. Contrapunctus 4.wav" WAVE TRACK 04 AUDIO TITLE "Contrapunctus 4" INDEX 01 00:00:00FILE "05. Contrapunctus 5.wav" WAVE TRACK 05 AUDIO TITLE "Contrapunctus 5" INDEX 01 00:00:00FILE "06. Canon per Augmentationem in Contrario Motu.wav" WAVE TRACK 06 AUDIO TITLE "Canon per Augmentationem in Contrario Motu" INDEX 01 00:00:00FILE "07. Contrapunctus 6. a 4 in Stylo Francese.wav" WAVE TRACK 07 AUDIO TITLE "Contrapunctus 6. a 4 in Stylo Francese" INDEX 01 00:00:00FILE "08. Canon alla Ottava.wav" WAVE TRACK 08 AUDIO TITLE "Canon alla Ottava" INDEX 01 00:00:00FILE "09. Contrapunctus 7. a 4 per Augmentationem et Diminutionem.wav" WAVE TRACK 09 AUDIO TITLE "Contrapunctus 7. a 4 per Augmentationem et Diminutionem" INDEX 01 00:00:00FILE "10. Contrapunctus 8. a 3.wav" WAVE TRACK 10 AUDIO TITLE "Contrapunctus 8. a 3" INDEX 01 00:00:00FILE "11. Contrapunctus 9. a 4. alla Duodecima.wav" WAVE TRACK 11 AUDIO TITLE "Contrapunctus 9. a 4. alla Duodecima" INDEX 01 00:00:00FILE "12. Contrapunctus 10. a 4. alla Decima.wav" WAVE TRACK 12 AUDIO TITLE "Contrapunctus 10. a 4. alla Decima" INDEX 01 00:00:00FILE "13. Canon alla Decima [in] Contrapunto alla Terza.wav" WAVE TRACK 13 AUDIO TITLE "Canon alla Decima [in] Contrapunto alla Terza" INDEX 01 00:00:00FILE "14. Contrapunctus 11. a 4.wav" WAVE TRACK 14 AUDIO TITLE "Contrapunctus 11. a 4" INDEX 01 00:00:00FILE "15. Contrapunctus 12 (rectus).wav" WAVE TRACK 15 AUDIO TITLE "Contrapunctus 12 (rectus)" INDEX 01 00:00:00FILE "16. Contrapunctus 13 (rectus).wav" WAVE TRACK 16 AUDIO TITLE "Contrapunctus 13 (rectus)" INDEX 01 00:00:00FILE "17. Contrapunctus 12 (inversus).wav" WAVE TRACK 17 AUDIO TITLE "Contrapunctus 12 (inversus)" INDEX 01 00:00:00FILE "18. Contrapunctus 13 (inversus).wav" WAVE TRACK 18 AUDIO TITLE "Contrapunctus 13 (inversus)" INDEX 01 00:00:00FILE "19. Canon alla Duodecima in Contrapunto alla Quinta.wav" WAVE TRACK 19 AUDIO TITLE "Canon alla Duodecima in Contrapunto alla Quinta" INDEX 01 00:00:00FILE "20. Contrapunctus 14 (Fuga a 4 Soggetti).wav" WAVE TRACK 20 AUDIO TITLE "Contrapunctus 14 (Fuga a 4 Soggetti)" INDEX 01 00:00:00

CD II. Keyboard Concertos

Keyboard Concerto in D Minor, BWV 1052
01. Allegro (7:16)
02. Adagio (5:19)
03. Allegro (7:46)
Keyboard Concerto in F Major, BWV 1057
04. [Allegro] (6:39)
05. Andante (2:53)
06. Allegro assai (4:56)
Keyboard Concerto No. 3 in D major, BWV 1054
07. [Allegro] (7:10)
08. Adagio e piano sempre (5:43)
09. Allegro (2:33)
Triple Concerto in A minor, BWV 1044
10. Allegro (8:16)
11. Adagio ma non tanto e dolce (5:19)
12. Tempo di Allabreve (7:44)

Лог создания рипа

X Lossless Decoder version 20100518 (120.3)
XLD extraction logfile from 2010-06-02 02:27:18 -0700
Rinaldo Alessandri, Concerto Italiano / Bach: The Art of Fugue & Keyboard Concertos [Disc 2]
Used drive : HL-DT-ST DVDRW GS21N (revision SA18)
Use cdparanoia mode : YES (CDParanoia III 10.2 engine)Disable audio cache : OK for the drive with cache less than 2750KBMake use of C2 pointers : NORead offset correction : 667Max retry count : 100
TOC of the extracted CD Track | Start | Length | Start sector | End sector --------------------------------------------------------- 1 | 00:00:00 | 07:15:52 | 0 | 32676 2 | 07:15:52 | 05:18:63 | 32677 | 56589 3 | 12:34:40 | 07:45:45 | 56590 | 91509 4 | 20:20:10 | 06:38:52 | 91510 | 121411 5 | 26:58:62 | 02:53:08 | 121412 | 134394 6 | 29:51:70 | 04:56:32 | 134395 | 156626 7 | 34:48:27 | 07:09:38 | 156627 | 188839 8 | 41:57:65 | 05:43:37 | 188840 | 214601 9 | 47:41:27 | 02:32:40 | 214602 | 226041 10 | 50:13:67 | 08:16:28 | 226042 | 263269 11 | 58:30:20 | 05:19:12 | 263270 | 287206 12 | 63:49:32 | 07:43:45 | 287207 | 321976
List of alternate offset correction values # | Absolute | Relative | Confidence ------------------------------------------ 1 | 1331 | 664 | 3
Track 01 Filename : /Users/John/Transfers/Bach, J.S. - The Art of Fugue & Keyboard Concertos (Rinaldo Alessandrini, 2003) [FLAC]/Disc 2 - Keyboard Concertos/01 Rinaldo Alessandri, Concerto Italiano - Keyboard Concerto in D minor, BWV 1052 - 1. Allegro.flac
Pre-gap length : 00:02:00
CRC32 hash (test run) : 5B11A50D CRC32 hash : 5B11A50D CRC32 hash (skip zero) : 65CD059F AccurateRip signature : C3F32780 ->Accurately ripped! (confidence 6) Statistics Read error : 0 Skipped (treated as error) : 0 Edge jitter error (maybe fixed) : 0 Atom jitter error (maybe fixed) : 0 Drift error (maybe fixed) : 0 Dropped bytes error (maybe fixed) : 0 Duplicated bytes error (maybe fixed) : 0 Inconsistency in error sectors : 0
Track 02 Filename : /Users/John/Transfers/Bach, J.S. - The Art of Fugue & Keyboard Concertos (Rinaldo Alessandrini, 2003) [FLAC]/Disc 2 - Keyboard Concertos/02 Rinaldo Alessandri, Concerto Italiano - Keyboard Concerto in D minor, BWV 1052 - 2. Adagio.flac
Pre-gap length : 00:01:50
CRC32 hash (test run) : 018484EA CRC32 hash : 018484EA CRC32 hash (skip zero) : 6090F03B AccurateRip signature : B370C24B ->Accurately ripped! (confidence 6) Statistics Read error : 0 Skipped (treated as error) : 0 Edge jitter error (maybe fixed) : 0 Atom jitter error (maybe fixed) : 0 Drift error (maybe fixed) : 0 Dropped bytes error (maybe fixed) : 0 Duplicated bytes error (maybe fixed) : 0 Inconsistency in error sectors : 0
Track 03 Filename : /Users/John/Transfers/Bach, J.S. - The Art of Fugue & Keyboard Concertos (Rinaldo Alessandrini, 2003) [FLAC]/Disc 2 - Keyboard Concertos/03 Rinaldo Alessandri, Concerto Italiano - Keyboard Concerto in D minor, BWV 1052 - 3. Allegro.flac
CRC32 hash (test run) : A220EE6F CRC32 hash : A220EE6F CRC32 hash (skip zero) : 31F45F8A AccurateRip signature : 7340BC23 ->Accurately ripped! (confidence 5) Statistics Read error : 0 Skipped (treated as error) : 0 Edge jitter error (maybe fixed) : 0 Atom jitter error (maybe fixed) : 0 Drift error (maybe fixed) : 0 Dropped bytes error (maybe fixed) : 0 Duplicated bytes error (maybe fixed) : 0 Inconsistency in error sectors : 0
Track 04 Filename : /Users/John/Transfers/Bach, J.S. - The Art of Fugue & Keyboard Concertos (Rinaldo Alessandrini, 2003) [FLAC]/Disc 2 - Keyboard Concertos/04 Rinaldo Alessandri, Concerto Italiano - Keyboard Concerto in F major, BWV 1057 - Mvt. 1.flac
Pre-gap length : 00:03:40
CRC32 hash (test run) : FE8A350B CRC32 hash : FE8A350B CRC32 hash (skip zero) : 51EC0B42 AccurateRip signature : 3AB8B262 ->Accurately ripped! (confidence 6) Statistics Read error : 0 Skipped (treated as error) : 0 Edge jitter error (maybe fixed) : 0 Atom jitter error (maybe fixed) : 0 Drift error (maybe fixed) : 0 Dropped bytes error (maybe fixed) : 0 Duplicated bytes error (maybe fixed) : 0 Inconsistency in error sectors : 0
Track 05 Filename : /Users/John/Transfers/Bach, J.S. - The Art of Fugue & Keyboard Concertos (Rinaldo Alessandrini, 2003) [FLAC]/Disc 2 - Keyboard Concertos/05 Rinaldo Alessandri, Concerto Italiano - Keyboard Concerto in F major, BWV 1057 - 2. Andante.flac
Pre-gap length : 00:01:30
CRC32 hash (test run) : A9CF54D2 CRC32 hash : A9CF54D2 CRC32 hash (skip zero) : 98468FB4 AccurateRip signature : 86E4E5A6 ->Accurately ripped! (confidence 6) Statistics Read error : 0 Skipped (treated as error) : 0 Edge jitter error (maybe fixed) : 0 Atom jitter error (maybe fixed) : 0 Drift error (maybe fixed) : 0 Dropped bytes error (maybe fixed) : 0 Duplicated bytes error (maybe fixed) : 0 Inconsistency in error sectors : 0
Track 06 Filename : /Users/John/Transfers/Bach, J.S. - The Art of Fugue & Keyboard Concertos (Rinaldo Alessandrini, 2003) [FLAC]/Disc 2 - Keyboard Concertos/06 Rinaldo Alessandri, Concerto Italiano - Keyboard Concerto in F major, BWV 1057 - 3. Allegro Assai.flac
CRC32 hash (test run) : A8BC791C CRC32 hash : A8BC791C CRC32 hash (skip zero) : 0BD3041C AccurateRip signature : D665DE17 ->Accurately ripped! (confidence 6) Statistics Read error : 0 Skipped (treated as error) : 0 Edge jitter error (maybe fixed) : 0 Atom jitter error (maybe fixed) : 0 Drift error (maybe fixed) : 0 Dropped bytes error (maybe fixed) : 0 Duplicated bytes error (maybe fixed) : 0 Inconsistency in error sectors : 0
Track 07 Filename : /Users/John/Transfers/Bach, J.S. - The Art of Fugue & Keyboard Concertos (Rinaldo Alessandrini, 2003) [FLAC]/Disc 2 - Keyboard Concertos/07 Rinaldo Alessandri, Concerto Italiano - Keybaord Concerto in D major, BWV 1054 - 1. Allegro.flac
Pre-gap length : 00:02:47
CRC32 hash (test run) : 65BDB491 CRC32 hash : 65BDB491 CRC32 hash (skip zero) : E98CA690 AccurateRip signature : 7A91352A ->Accurately ripped! (confidence 5) Statistics Read error : 0 Skipped (treated as error) : 0 Edge jitter error (maybe fixed) : 0 Atom jitter error (maybe fixed) : 0 Drift error (maybe fixed) : 0 Dropped bytes error (maybe fixed) : 0 Duplicated bytes error (maybe fixed) : 0 Inconsistency in error sectors : 0
Track 08 Filename : /Users/John/Transfers/Bach, J.S. - The Art of Fugue & Keyboard Concertos (Rinaldo Alessandrini, 2003) [FLAC]/Disc 2 - Keyboard Concertos/08 Rinaldo Alessandri, Concerto Italiano - Keybaord Concerto in D major, BWV 1054 - 2. Adagio E Piano Sempre.flac
Pre-gap length : 00:01:40
CRC32 hash (test run) : F1439AE1 CRC32 hash : F1439AE1 CRC32 hash (skip zero) : B5AB216B AccurateRip signature : 013640BB ->Accurately ripped! (confidence 5) Statistics Read error : 0 Skipped (treated as error) : 0 Edge jitter error (maybe fixed) : 0 Atom jitter error (maybe fixed) : 0 Drift error (maybe fixed) : 0 Dropped bytes error (maybe fixed) : 0 Duplicated bytes error (maybe fixed) : 0 Inconsistency in error sectors : 0
Track 09 Filename : /Users/John/Transfers/Bach, J.S. - The Art of Fugue & Keyboard Concertos (Rinaldo Alessandrini, 2003) [FLAC]/Disc 2 - Keyboard Concertos/09 Rinaldo Alessandri, Concerto Italiano - Keybaord Concerto in D major, BWV 1054 - 3. Allegro.flac
Pre-gap length : 00:01:60
CRC32 hash (test run) : 053EB089 CRC32 hash : 053EB089 CRC32 hash (skip zero) : 714A7DD7 AccurateRip signature : 5DB29473 ->Accurately ripped! (confidence 5) Statistics Read error : 0 Skipped (treated as error) : 0 Edge jitter error (maybe fixed) : 0 Atom jitter error (maybe fixed) : 0 Drift error (maybe fixed) : 0 Dropped bytes error (maybe fixed) : 0 Duplicated bytes error (maybe fixed) : 0 Inconsistency in error sectors : 0
Track 10 Filename : /Users/John/Transfers/Bach, J.S. - The Art of Fugue & Keyboard Concertos (Rinaldo Alessandrini, 2003) [FLAC]/Disc 2 - Keyboard Concertos/10 Rinaldo Alessandri, Concerto Italiano - Triple Concerto in A Minor, BWV 1044 - 1. Allegro.flac
CRC32 hash (test run) : DD142838 CRC32 hash : DD142838 CRC32 hash (skip zero) : DB973502 AccurateRip signature : 8A827A55 ->Accurately ripped! (confidence 5) Statistics Read error : 0 Skipped (treated as error) : 0 Edge jitter error (maybe fixed) : 0 Atom jitter error (maybe fixed) : 0 Drift error (maybe fixed) : 0 Dropped bytes error (maybe fixed) : 0 Duplicated bytes error (maybe fixed) : 0 Inconsistency in error sectors : 0
Track 11 Filename : /Users/John/Transfers/Bach, J.S. - The Art of Fugue & Keyboard Concertos (Rinaldo Alessandrini, 2003) [FLAC]/Disc 2 - Keyboard Concertos/11 Rinaldo Alessandri, Concerto Italiano - Triple Concerto in A Minor, BWV 1044 - 2. Adagio, Ma Non Tanto, E Dolce.flac
CRC32 hash (test run) : 1668777D CRC32 hash : 1668777D CRC32 hash (skip zero) : 34DAD510 AccurateRip signature : E609CAF2 ->Accurately ripped! (confidence 5) Statistics Read error : 0 Skipped (treated as error) : 0 Edge jitter error (maybe fixed) : 0 Atom jitter error (maybe fixed) : 0 Drift error (maybe fixed) : 0 Dropped bytes error (maybe fixed) : 0 Duplicated bytes error (maybe fixed) : 0 Inconsistency in error sectors : 0
Track 12 Filename : /Users/John/Transfers/Bach, J.S. - The Art of Fugue & Keyboard Concertos (Rinaldo Alessandrini, 2003) [FLAC]/Disc 2 - Keyboard Concertos/12 Rinaldo Alessandri, Concerto Italiano - Triple Concerto in A Minor, BWV 1044 - 3. Alla Breve.flac
CRC32 hash (test run) : 1C4DB280 CRC32 hash : 1C4DB280 CRC32 hash (skip zero) : C7F11ABC AccurateRip signature : 631BCC72 ->Accurately ripped! (confidence 4) Statistics Read error : 0 Skipped (treated as error) : 0 Edge jitter error (maybe fixed) : 0 Atom jitter error (maybe fixed) : 0 Drift error (maybe fixed) : 0 Dropped bytes error (maybe fixed) : 0 Duplicated bytes error (maybe fixed) : 0 Inconsistency in error sectors : 0
No errors occurred
End of status report

Содержание индексной карты (.CUE)

TITLE "Keyboard Concertos"PERFORMER "Concerto Italiano, Rinaldo Alessandrini"REM DATE 2003REM DISCNUMBER 2REM DISCID 9810C50CFILE "01. Allegro.wav" WAVE TRACK 01 AUDIO TITLE "Allegro" INDEX 01 00:00:00 TRACK 02 AUDIO TITLE "Adagio" INDEX 00 07:14:02FILE "02. Adagio.wav" WAVE INDEX 01 00:00:00FILE "03. Allegro.wav" WAVE TRACK 03 AUDIO TITLE "Allegro" INDEX 01 00:00:00 TRACK 04 AUDIO TITLE "[Allegro]" INDEX 00 07:42:05FILE "04. [Allegro].wav" WAVE INDEX 01 00:00:00 TRACK 05 AUDIO TITLE "Andante" INDEX 00 06:37:22FILE "05. Andante.wav" WAVE INDEX 01 00:00:00FILE "06. Allegro assai.wav" WAVE TRACK 06 AUDIO TITLE "Allegro assai" INDEX 01 00:00:00 TRACK 07 AUDIO TITLE "[Allegro]" INDEX 00 04:53:60FILE "07. [Allegro].wav" WAVE INDEX 01 00:00:00 TRACK 08 AUDIO TITLE "Adagio e piano sempre" INDEX 00 07:07:73FILE "08. Adagio e piano sempre.wav" WAVE INDEX 01 00:00:00 TRACK 09 AUDIO TITLE "Allegro" INDEX 00 05:41:52FILE "09. Allegro.wav" WAVE INDEX 01 00:00:00FILE "10. Allegro.wav" WAVE TRACK 10 AUDIO TITLE "Allegro" INDEX 01 00:00:00FILE "11. Adagio ma non tanto e dolce.wav" WAVE TRACK 11 AUDIO TITLE "Adagio ma non tanto e dolce" INDEX 01 00:00:00FILE "12. Tempo di Allabreve.wav" WAVE TRACK 12 AUDIO TITLE "Tempo di Allabreve" INDEX 01 00:00:00
[teatrix.ru].t9633.torrent 
Торрент: Зарегистрирован [ 2015-10-23 17:11 ] · 9B1CFDB4269A3CD066CEA75AB6010812312C033F

Скачать .torrent

Скачать

19 KB

Статус: проверено
Скачан: 1 раз
Размер: 760 MB
terms.php



Быстрый ответ

Имя:

      
Для отправки сообщений необходимо включить JavaScript
Показать сообщения:    

Текущее время: 05-Дек 21:39

Часовой пояс: UTC + 3


Вы можете начинать темы
Вы можете отвечать на сообщения
Вы не можете редактировать свои сообщения
Вы не можете удалять свои сообщения
Вы не можете голосовать в опросах
Вы не можете прикреплять файлы к сообщениям
Вы можете скачивать файлы