(Classical) Wolfgang Amadeus Mozart — Piano Concertos № 1, 2, 3 & 4 (KV 37, 39, 40 & 41) (Robert Levin (harpsichord), Christopher Hogwood) — 2001, FLAC (tracks+.cue) lossless


Статистика раздачи [Обновить пиров]
Размер:  314 MB   |    Зарегистрирован:  1 год 1 месяц   |    Скачан:  0 раз

Полного источника не было: Никогда

 
   
 
 
 

[Цитировать]

Piano Concertos № 1, 2, 3 & 4 (KV 37, 39, 40 & 41)- Жанр: Classical
Страна-производитель диска: Германия
Год издания диска: 2001
Издатель (лейбл): Decca
Номер по каталогу: 466 131 2
Композитор: Wolfgang Amadeus Mozart
Аудио кодек: flac
Тип рипа: tracks+.cue
Битрейт аудио: lossless
Продолжительность: 01h00'10"
Источник: What.CD
Наличие сканов в содержимом раздачи: нет-Треклист:
Piano Concerto № 1 F-Dur KV 37
01. I. Allegro [00h05'19"]
02. II. Andante [00h05'08"]
03. III. Allegro [00h06'29"]
Piano Concerto № 2 B-Dur KV 39
04. I. Allegro spiritoso [00h05'09"]
05. II. Andante staccato [00h07'38"]
06. III. Molto allegro [00h04'11"]
Piano Concerto № 3 D-Dur KV 40
07. I. Allegro maestoso [00h05'05"]
08. II. Andante [00h03'54"]
09. III. Presto [00h04'37"]
Piano Concerto № 4 G-Dur KV 41
10. I. Allegro [00h04'49"]
11. II. Andante [00h03'58"]
12. III. Allegro [00h03'53"]-The Academy of Ancient Music, cond. Christopher Hogwood, Harpsichord – Robert Levin-

XLD log

X Lossless Decoder version 20110515 (133.1)
XLD extraction logfile from 2011-05-23 19:29:33 -0400
Christopher Hogwood / Mozart _ Concertos 1-4
Used drive : OPTIARC DVD RW AD-5630A (revision 1AHM)
Ripper mode             : XLD Secure Ripper
Disable audio cache     : OK for the drive with a cache less than 1375KiB
Make use of C2 pointers : NO
Read offset correction  : 48
Max retry count         : 100
Gap status              : Analyzed, Appended
TOC of the extracted CD
     Track |   Start  |  Length  | Start sector | End sector
    ---------------------------------------------------------
        1  | 00:00:00 | 05:18:70 |         0    |    23919
        2  | 05:18:70 | 05:07:70 |     23920    |    47014
        3  | 10:26:65 | 06:29:02 |     47015    |    76191
        4  | 16:55:67 | 05:08:65 |     76192    |    99356
        5  | 22:04:57 | 07:38:28 |     99357    |   133734
        6  | 29:43:10 | 04:11:05 |    133735    |   152564
        7  | 33:54:15 | 05:04:52 |    152565    |   175416
        8  | 38:58:67 | 03:54:25 |    175417    |   192991
        9  | 42:53:17 | 04:36:65 |    192992    |   213756
       10  | 47:30:07 | 04:49:13 |    213757    |   235444
       11  | 52:19:20 | 03:57:47 |    235445    |   253266
       12  | 56:16:67 | 03:53:08 |    253267    |   270749
AccurateRip Summary
    Track 01 : OK (confidence 4)
    Track 02 : OK (confidence 4)
    Track 03 : OK (confidence 4)
    Track 04 : OK (confidence 4)
    Track 05 : OK (confidence 4)
    Track 06 : OK (confidence 3)
    Track 07 : OK (confidence 4)
    Track 08 : OK (confidence 4)
    Track 09 : OK (confidence 4)
    Track 10 : OK (confidence 4)
    Track 11 : OK (confidence 4)
    Track 12 : OK (confidence 4)
        ->All tracks accurately ripped.
All Tracks
    Album gain             : 0.76 dB
    Peak                   : 0.999969
    Statistics
        Read error                           : 0
        Jitter error (maybe fixed)           : 0
        Retry sector count                   : 0
        Damaged sector count                 : 0
Track 01
    Filename : /Users/curtiscarpenter/Music/Mozart Concertos 1-4 - Christopher Hogwood/Christopher Hogwood - Mozart _ Concertos 1-4 (2001) [FLAC]/01 Concerto No.1 in F Major, K37пјљ 1. Allegro or Christopher Hogwood - 2001 - Mozart _ Concertos 1-4 [FLAC]/01 Concerto No.1 in F Major, K37пјљ 1. Allegro.flac
    Pre-gap length : 00:02:00
    Track gain             : 0.48 dB
    Peak                   : 0.951721
    CRC32 hash (test run)  : 7CD2860C
    CRC32 hash             : 7CD2860C
    CRC32 hash (skip zero) : B3703191
    AccurateRip signature  : 4DBDF18F
        ->Accurately ripped! (confidence 4)
    Statistics
        Read error                           : 0
        Jitter error (maybe fixed)           : 0
        Retry sector count                   : 0
        Damaged sector count                 : 0
Track 02
    Filename : /Users/curtiscarpenter/Music/Mozart Concertos 1-4 - Christopher Hogwood/Christopher Hogwood - Mozart _ Concertos 1-4 (2001) [FLAC]/02 Concerto No.1 in F Major, K37пјљ 2. Andante or Christopher Hogwood - 2001 - Mozart _ Concertos 1-4 [FLAC]/02 Concerto No.1 in F Major, K37пјљ 2. Andante.flac
    Track gain             : 6.38 dB
    Peak                   : 0.448608
    CRC32 hash (test run)  : A5F4E760
    CRC32 hash             : A5F4E760
    CRC32 hash (skip zero) : 11C7F4D4
    AccurateRip signature  : FF63DBEF
        ->Accurately ripped! (confidence 4)
    Statistics
        Read error                           : 0
        Jitter error (maybe fixed)           : 0
        Retry sector count                   : 0
        Damaged sector count                 : 0
Track 03
    Filename : /Users/curtiscarpenter/Music/Mozart Concertos 1-4 - Christopher Hogwood/Christopher Hogwood - Mozart _ Concertos 1-4 (2001) [FLAC]/03 Concerto No.1 in F Major, K37пјљ 3. Allegro or Christopher Hogwood - 2001 - Mozart _ Concertos 1-4 [FLAC]/03 Concerto No.1 in F Major, K37пјљ 3. Allegro.flac
    Track gain             : 0.74 dB
    Peak                   : 0.919189
    CRC32 hash (test run)  : 5CD757D3
    CRC32 hash             : 5CD757D3
    CRC32 hash (skip zero) : F011BAAE
    AccurateRip signature  : 9331C502
        ->Accurately ripped! (confidence 4)
    Statistics
        Read error                           : 0
        Jitter error (maybe fixed)           : 0
        Retry sector count                   : 0
        Damaged sector count                 : 0
Track 04
    Filename : /Users/curtiscarpenter/Music/Mozart Concertos 1-4 - Christopher Hogwood/Christopher Hogwood - Mozart _ Concertos 1-4 (2001) [FLAC]/04 Concerto No.2 in B flat Major, K39пјљ 1. Allegro spirituoso or Christopher Hogwood - 2001 - Mozart _ Concertos 1-4 [FLAC]/04 Concerto No.2 in B flat Major, K39пјљ 1. Allegro spirituoso.flac
    Pre-gap length : 00:07:62
    Track gain             : -2.15 dB
    Peak                   : 0.999969
    CRC32 hash (test run)  : B5E3565B
    CRC32 hash             : B5E3565B
    CRC32 hash (skip zero) : BB252888
    AccurateRip signature  : 393A12E6
        ->Accurately ripped! (confidence 4)
    Statistics
        Read error                           : 0
        Jitter error (maybe fixed)           : 0
        Retry sector count                   : 0
        Damaged sector count                 : 0
Track 05
    Filename : /Users/curtiscarpenter/Music/Mozart Concertos 1-4 - Christopher Hogwood/Christopher Hogwood - Mozart _ Concertos 1-4 (2001) [FLAC]/05 Concerto No.2 in B flat Major, K39пјљ 2. Andante staccato or Christopher Hogwood - 2001 - Mozart _ Concertos 1-4 [FLAC]/05 Concerto No.2 in B flat Major, K39пјљ 2. Andante staccato.flac
    Pre-gap length : 00:01:20
    Track gain             : 2.95 dB
    Peak                   : 0.733887
    CRC32 hash (test run)  : E94DF190
    CRC32 hash             : E94DF190
    CRC32 hash (skip zero) : 7A4F8081
    AccurateRip signature  : 792A49AA
        ->Accurately ripped! (confidence 4)
    Statistics
        Read error                           : 0
        Jitter error (maybe fixed)           : 0
        Retry sector count                   : 0
        Damaged sector count                 : 0
Track 06
    Filename : /Users/curtiscarpenter/Music/Mozart Concertos 1-4 - Christopher Hogwood/Christopher Hogwood - Mozart _ Concertos 1-4 (2001) [FLAC]/06 Concerto No.2 in B flat Major, K39пјљ 3. Molto allegro or Christopher Hogwood - 2001 - Mozart _ Concertos 1-4 [FLAC]/06 Concerto No.2 in B flat Major, K39пјљ 3. Molto allegro.flac
    Track gain             : -1.56 dB
    Peak                   : 0.984558
    CRC32 hash (test run)  : C1E4FC1E
    CRC32 hash             : C1E4FC1E
    CRC32 hash (skip zero) : FBCED654
    AccurateRip signature  : A733FC89
        ->Accurately ripped! (confidence 3)
    Statistics
        Read error                           : 0
        Jitter error (maybe fixed)           : 0
        Retry sector count                   : 0
        Damaged sector count                 : 0
Track 07
    Filename : /Users/curtiscarpenter/Music/Mozart Concertos 1-4 - Christopher Hogwood/Christopher Hogwood - Mozart _ Concertos 1-4 (2001) [FLAC]/07 Concerto No.3 in D Major, K40пјљ 1. Allegro maestoso or Christopher Hogwood - 2001 - Mozart _ Concertos 1-4 [FLAC]/07 Concerto No.3 in D Major, K40пјљ 1. Allegro maestoso.flac
    Pre-gap length : 00:05:60
    Track gain             : -0.20 dB
    Peak                   : 0.999969
    CRC32 hash (test run)  : B6BAAA44
    CRC32 hash             : B6BAAA44
    CRC32 hash (skip zero) : FD6AB0E2
    AccurateRip signature  : D661E6BA
        ->Accurately ripped! (confidence 4)
    Statistics
        Read error                           : 0
        Jitter error (maybe fixed)           : 0
        Retry sector count                   : 0
        Damaged sector count                 : 0
Track 08
    Filename : /Users/curtiscarpenter/Music/Mozart Concertos 1-4 - Christopher Hogwood/Christopher Hogwood - Mozart _ Concertos 1-4 (2001) [FLAC]/08 Concerto No.3 in D Major, K40пјљ 2. Andante or Christopher Hogwood - 2001 - Mozart _ Concertos 1-4 [FLAC]/08 Concerto No.3 in D Major, K40пјљ 2. Andante.flac
    Pre-gap length : 00:01:12
    Track gain             : 6.97 dB
    Peak                   : 0.434235
    CRC32 hash (test run)  : B542A501
    CRC32 hash             : B542A501
    CRC32 hash (skip zero) : CDC35953
    AccurateRip signature  : B3B25C3F
        ->Accurately ripped! (confidence 4)
    Statistics
        Read error                           : 0
        Jitter error (maybe fixed)           : 0
        Retry sector count                   : 0
        Damaged sector count                 : 0
Track 09
    Filename : /Users/curtiscarpenter/Music/Mozart Concertos 1-4 - Christopher Hogwood/Christopher Hogwood - Mozart _ Concertos 1-4 (2001) [FLAC]/09 Concerto No.3 in D Major, K40пјљ 3. Presto or Christopher Hogwood - 2001 - Mozart _ Concertos 1-4 [FLAC]/09 Concerto No.3 in D Major, K40пјљ 3. Presto.flac
    Track gain             : 0.41 dB
    Peak                   : 0.886475
    CRC32 hash (test run)  : 49593F1D
    CRC32 hash             : 49593F1D
    CRC32 hash (skip zero) : 3EA1CB05
    AccurateRip signature  : FEDF07B6
        ->Accurately ripped! (confidence 4)
    Statistics
        Read error                           : 0
        Jitter error (maybe fixed)           : 0
        Retry sector count                   : 0
        Damaged sector count                 : 0
Track 10
    Filename : /Users/curtiscarpenter/Music/Mozart Concertos 1-4 - Christopher Hogwood/Christopher Hogwood - Mozart _ Concertos 1-4 (2001) [FLAC]/10 Concerto No.4 in G Major, K41пјљ 1. Allegro or Christopher Hogwood - 2001 - Mozart _ Concertos 1-4 [FLAC]/10 Concerto No.4 in G Major, K41пјљ 1. Allegro.flac
    Pre-gap length : 00:07:57
    Track gain             : 0.46 dB
    Peak                   : 0.878662
    CRC32 hash (test run)  : 0FF8D6FB
    CRC32 hash             : 0FF8D6FB
    CRC32 hash (skip zero) : D962E21C
    AccurateRip signature  : B700BED6
        ->Accurately ripped! (confidence 4)
    Statistics
        Read error                           : 0
        Jitter error (maybe fixed)           : 0
        Retry sector count                   : 0
        Damaged sector count                 : 0
Track 11
    Filename : /Users/curtiscarpenter/Music/Mozart Concertos 1-4 - Christopher Hogwood/Christopher Hogwood - Mozart _ Concertos 1-4 (2001) [FLAC]/11 Concerto No.4 in G Major, K41пјљ 2. Andante or Christopher Hogwood - 2001 - Mozart _ Concertos 1-4 [FLAC]/11 Concerto No.4 in G Major, K41пјљ 2. Andante.flac
    Track gain             : 5.96 dB
    Peak                   : 0.562256
    CRC32 hash (test run)  : 9CA31CEF
    CRC32 hash             : 9CA31CEF
    CRC32 hash (skip zero) : A1ACC18E
    AccurateRip signature  : 094EE5BB
        ->Accurately ripped! (confidence 4)
    Statistics
        Read error                           : 0
        Jitter error (maybe fixed)           : 0
        Retry sector count                   : 0
        Damaged sector count                 : 0
Track 12
    Filename : /Users/curtiscarpenter/Music/Mozart Concertos 1-4 - Christopher Hogwood/Christopher Hogwood - Mozart _ Concertos 1-4 (2001) [FLAC]/12 Concerto No.4 in G Major, K41пјљ 3. Molto allegro or Christopher Hogwood - 2001 - Mozart _ Concertos 1-4 [FLAC]/12 Concerto No.4 in G Major, K41пјљ 3. Molto allegro.flac
    Track gain             : -0.27 dB
    Peak                   : 0.956970
    CRC32 hash (test run)  : DE8F7F4C
    CRC32 hash             : DE8F7F4C
    CRC32 hash (skip zero) : D4D2FBAA
    AccurateRip signature  : 57A7B45A
        ->Accurately ripped! (confidence 4)
    Statistics
        Read error                           : 0
        Jitter error (maybe fixed)           : 0
        Retry sector count                   : 0
        Damaged sector count                 : 0
No errors occurred
End of status report

-

CUE

TITLE "Mozart _ Concertos 1-4"
PERFORMER "Christopher Hogwood"
CATALOG 0028946613122
REM GENRE "Classical"
REM DATE "2001"
REM DISCID 970E1A0C
REM REPLAYGAIN_ALBUM_GAIN 0.76 dB
REM REPLAYGAIN_ALBUM_PEAK 0.999969
FILE "01 Concerto No.1 in F Major, K37пјљ 1. Allegro.flac" WAVE
  TRACK 01 AUDIO
    TITLE "Concerto No.1 in F Major, K37: 1. Allegro"
    SONGWRITER "Wolfgang Amadeus Mozart"
    ISRC GBBBB9802501
    REM REPLAYGAIN_TRACK_GAIN 0.48 dB
    REM REPLAYGAIN_TRACK_PEAK 0.951721
    INDEX 01 00:00:00
FILE "02 Concerto No.1 in F Major, K37пјљ 2. Andante.flac" WAVE
  TRACK 02 AUDIO
    TITLE "Concerto No.1 in F Major, K37: 2. Andante"
    SONGWRITER "Wolfgang Amadeus Mozart"
    ISRC GBBBB9802502
    REM REPLAYGAIN_TRACK_GAIN 6.38 dB
    REM REPLAYGAIN_TRACK_PEAK 0.448608
    INDEX 01 00:00:00
FILE "03 Concerto No.1 in F Major, K37пјљ 3. Allegro.flac" WAVE
  TRACK 03 AUDIO
    TITLE "Concerto No.1 in F Major, K37: 3. Allegro"
    SONGWRITER "Wolfgang Amadeus Mozart"
    ISRC GBBBB9802503
    REM REPLAYGAIN_TRACK_GAIN 0.74 dB
    REM REPLAYGAIN_TRACK_PEAK 0.919189
    INDEX 01 00:00:00
  TRACK 04 AUDIO
    TITLE "Concerto No.2 in B flat Major, K39: 1. Allegro spirituoso"
    SONGWRITER "Wolfgang Amadeus Mozart"
    ISRC GBBBB9802504
    REM REPLAYGAIN_TRACK_GAIN -2.15 dB
    REM REPLAYGAIN_TRACK_PEAK 0.999969
    INDEX 00 06:21:15
FILE "04 Concerto No.2 in B flat Major, K39пјљ 1. Allegro spirituoso.flac" WAVE
    INDEX 01 00:00:00
  TRACK 05 AUDIO
    TITLE "Concerto No.2 in B flat Major, K39: 2. Andante staccato"
    SONGWRITER "Wolfgang Amadeus Mozart"
    ISRC GBBBB9802505
    REM REPLAYGAIN_TRACK_GAIN 2.95 dB
    REM REPLAYGAIN_TRACK_PEAK 0.733887
    INDEX 00 05:07:45
FILE "05 Concerto No.2 in B flat Major, K39пјљ 2. Andante staccato.flac" WAVE
    INDEX 01 00:00:00
FILE "06 Concerto No.2 in B flat Major, K39пјљ 3. Molto allegro.flac" WAVE
  TRACK 06 AUDIO
    TITLE "Concerto No.2 in B flat Major, K39: 3. Molto allegro"
    SONGWRITER "Wolfgang Amadeus Mozart"
    ISRC GBBBB9802506
    REM REPLAYGAIN_TRACK_GAIN -1.56 dB
    REM REPLAYGAIN_TRACK_PEAK 0.984558
    INDEX 01 00:00:00
  TRACK 07 AUDIO
    TITLE "Concerto No.3 in D Major, K40: 1. Allegro maestoso"
    SONGWRITER "Wolfgang Amadeus Mozart"
    ISRC GBBBB9802507
    REM REPLAYGAIN_TRACK_GAIN -0.20 dB
    REM REPLAYGAIN_TRACK_PEAK 0.999969
    INDEX 00 04:05:20
FILE "07 Concerto No.3 in D Major, K40пјљ 1. Allegro maestoso.flac" WAVE
    INDEX 01 00:00:00
  TRACK 08 AUDIO
    TITLE "Concerto No.3 in D Major, K40: 2. Andante"
    SONGWRITER "Wolfgang Amadeus Mozart"
    ISRC GBBBB9802508
    REM REPLAYGAIN_TRACK_GAIN 6.97 dB
    REM REPLAYGAIN_TRACK_PEAK 0.434235
    INDEX 00 05:03:40
FILE "08 Concerto No.3 in D Major, K40пјљ 2. Andante.flac" WAVE
    INDEX 01 00:00:00
FILE "09 Concerto No.3 in D Major, K40пјљ 3. Presto.flac" WAVE
  TRACK 09 AUDIO
    TITLE "Concerto No.3 in D Major, K40: 3. Presto"
    SONGWRITER "Wolfgang Amadeus Mozart"
    ISRC GBBBB9802509
    REM REPLAYGAIN_TRACK_GAIN 0.41 dB
    REM REPLAYGAIN_TRACK_PEAK 0.886475
    INDEX 01 00:00:00
  TRACK 10 AUDIO
    TITLE "Concerto No.4 in G Major, K41: 1. Allegro"
    SONGWRITER "Wolfgang Amadeus Mozart"
    ISRC GBBBB9802510
    REM REPLAYGAIN_TRACK_GAIN 0.46 dB
    REM REPLAYGAIN_TRACK_PEAK 0.878662
    INDEX 00 04:29:08
FILE "10 Concerto No.4 in G Major, K41пјљ 1. Allegro.flac" WAVE
    INDEX 01 00:00:00
FILE "11 Concerto No.4 in G Major, K41пјљ 2. Andante.flac" WAVE
  TRACK 11 AUDIO
    TITLE "Concerto No.4 in G Major, K41: 2. Andante"
    SONGWRITER "Wolfgang Amadeus Mozart"
    ISRC GBBBB9802511
    REM REPLAYGAIN_TRACK_GAIN 5.96 dB
    REM REPLAYGAIN_TRACK_PEAK 0.562256
    INDEX 01 00:00:00
FILE "12 Concerto No.4 in G Major, K41пјљ 3. Molto allegro.flac" WAVE
  TRACK 12 AUDIO
    TITLE "Concerto No.4 in G Major, K41: 3. Molto allegro"
    SONGWRITER "Wolfgang Amadeus Mozart"
    ISRC GBBBB9802512
    REM REPLAYGAIN_TRACK_GAIN -0.27 dB
    REM REPLAYGAIN_TRACK_PEAK 0.956970
    INDEX 01 00:00:00
-
[teatrix.ru].t9634.torrent 
Торрент: Зарегистрирован [ 2015-10-23 17:11 ] · CD6B110FAFB9B5865338098F359E15B2B3AE5C87

Скачать .torrent

Скачать

14 KB

Статус: проверено
Скачан: 0 раз
Размер: 314 MB
terms.php



Быстрый ответ

Имя:

      
Для отправки сообщений необходимо включить JavaScript
Показать сообщения:    

Текущее время: 11-Дек 03:20

Часовой пояс: UTC + 3


Вы можете начинать темы
Вы можете отвечать на сообщения
Вы не можете редактировать свои сообщения
Вы не можете удалять свои сообщения
Вы не можете голосовать в опросах
Вы не можете прикреплять файлы к сообщениям
Вы можете скачивать файлы