(Classical) Wolfgang Amadeus Mozart — Piano Concertos № 15 & 26 (KV 450 & 537) (Robert Levin, Christopher Hogwood) — 1987, FLAC (tracks+.cue) lossless


Статистика раздачи [Обновить пиров]
Размер:  268 MB   |    Зарегистрирован:  1 год 1 месяц   |    Скачан:  0 раз

Полного источника не было: Никогда

 
   
 
 
 

[Цитировать]

Piano Concertos № 15 & 26 (KV 450 & 537)-
Жанр: Classical
Страна-производитель диска: Германия
Год издания диска: 1987
Издатель (лейбл): Editions de l'Oiseau-Lyre / Decca
Номер по каталогу: 455 814-2
CATALOG: 028945581422
Композитор: Wolfgang Amadeus Mozart
Аудио кодек: flac
Тип рипа: tracks+.cue
Битрейт аудио: lossless
Продолжительность: 01h02'07"
Источник: What.CD
Наличие сканов в содержимом раздачи: да-Треклист:
Piano Concerto № 15 B-Dur KV 450
01. I. Allegro [00h11'24"]
02. II. Andante [00h05'27"]
03. III. Allegro [00h07'54"]
Piano Concerto № 26 D-Dur KV 537 «Coronation»
04. I. Allegro [00h13'51"]
05. II. Larghetto [00h06'37"]
06. III. Allegretto [00h11'22"]
Piano Concerto № 15 B-Dur KV 450
07. II. Andante (First version) [00h05'32"]-The Academy of Ancient Music, cond. Christopher Hogwood, Piano (Anton Walter, Vienna, c.1780; Mozart's own fortepiano) – Robert Levin-

EAC log

Exact Audio Copy V1.0 beta 3 from 29. August 2011
EAC extraction logfile from 13. November 2012, 11:33
Robert Levin / Mozart Piano Concertos Nos. 15, K450 & 26, K537 "Coronation"
Used drive  : PLDS    BD-RE DH-8B2SH   Adapter: 0  ID: 0
Read mode               : Secure
Utilize accurate stream : Yes
Defeat audio cache      : Yes
Make use of C2 pointers : No
Read offset correction                      : 6
Overread into Lead-In and Lead-Out          : No
Fill up missing offset samples with silence : Yes
Delete leading and trailing silent blocks   : No
Null samples used in CRC calculations       : Yes
Used interface                              : Native Win32 interface for Win NT & 2000
Gap handling                                : Not detected, thus appended to previous track
Used output format              : User Defined Encoder
Selected bitrate                : 768 kBit/s
Quality                         : High
Add ID3 tag                     : No
Command line compressor         : C:\Program Files (x86)\Exact Audio Copy\FLAC\FLAC.EXE
Additional command line options : -6 -V -T "ARTIST=%artist%" -T "TITLE=%title%" -T "ALBUM=%albumtitle%" -T "DATE=%year%" -T "TRACKNUMBER=%tracknr%" -T "GENRE=%genre%" -T "COMMENT=%comment%" -T "BAND=%albuminterpret%" -T "ALBUMARTIST=%albuminterpret%" -T "COMPOSER=%composer%" %haslyrics%--tag-from-file=LYRICS="%lyricsfile%"%haslyrics% -T "DISCNUMBER=%cdnumber%" -T "TOTALDISCS=%totalcds%" -T "TOTALTRACKS=%numtracks%" %hascover%--picture="%coverfile%"%hascover% %source% -o %dest%
TOC of the extracted CD
     Track |   Start  |  Length  | Start sector | End sector
    ---------------------------------------------------------
        1  |  0:00.32 | 11:23.50 |        32    |    51306
        2  | 11:24.07 |  5:26.63 |     51307    |    75819
        3  | 16:50.70 |  7:54.37 |     75820    |   111406
        4  | 24:45.32 | 13:51.13 |    111407    |   173744
        5  | 38:36.45 |  6:37.12 |    173745    |   203531
        6  | 45:13.57 | 11:22.00 |    203532    |   254681
        7  | 56:35.57 |  5:31.38 |    254682    |   279544
Track  1
     Filename C:\EAC\01 Piano Concerto No. 15 in B flat major, K. 450- Allegro.wav
     Peak level 65.0 %
     Extraction speed 2.5 X
     Track quality 100.0 %
     Test CRC A5871D9C
     Copy CRC A5871D9C
     Accurately ripped (confidence 6)  [01785222]  (AR v1)
     Copy OK
Track  2
     Filename C:\EAC\02 Piano Concerto No. 15 in B flat major, K. 450- Andante.wav
     Peak level 40.9 %
     Extraction speed 2.8 X
     Track quality 100.0 %
     Test CRC EEC84971
     Copy CRC EEC84971
     Accurately ripped (confidence 6)  [838AB6B6]  (AR v1)
     Copy OK
Track  3
     Filename C:\EAC\03 Piano Concerto No. 15 in B flat major, K. 450- Allegro.wav
     Peak level 72.9 %
     Extraction speed 3.2 X
     Track quality 100.0 %
     Test CRC CFEDD199
     Copy CRC CFEDD199
     Accurately ripped (confidence 6)  [1C6E169A]  (AR v1)
     Copy OK
Track  4
     Filename C:\EAC\04 Piano Concerto No. 26 in D major ('Coronation') K. 537- Allegro.wav
     Peak level 87.7 %
     Extraction speed 3.7 X
     Track quality 100.0 %
     Test CRC 869E2A77
     Copy CRC 869E2A77
     Accurately ripped (confidence 6)  [0DEDFE3A]  (AR v1)
     Copy OK
Track  5
     Filename C:\EAC\05 Piano Concerto No. 26 in D major ('Coronation') K. 537- Larghetto.wav
     Peak level 38.1 %
     Extraction speed 3.9 X
     Track quality 100.0 %
     Test CRC B9780B22
     Copy CRC B9780B22
     Accurately ripped (confidence 6)  [8CEBC5C7]  (AR v1)
     Copy OK
Track  6
     Filename C:\EAC\06 Piano Concerto No. 26 in D major ('Coronation') K. 537- Allegretto.wav
     Peak level 86.5 %
     Extraction speed 4.4 X
     Track quality 100.0 %
     Test CRC FD0546BF
     Copy CRC FD0546BF
     Accurately ripped (confidence 6)  [B4578423]  (AR v1)
     Copy OK
Track  7
     Filename C:\EAC\07 Piano Concerto No. 15 in B flat major, K. 450- II- Andante (First Version).wav
     Peak level 38.3 %
     Extraction speed 4.4 X
     Track quality 100.0 %
     Test CRC 0EACE301
     Copy CRC 0EACE301
     Accurately ripped (confidence 6)  [B429229A]  (AR v1)
     Copy OK
All tracks accurately ripped
No errors occurred
End of status report
==== Log checksum 949E5CC0164B30B7746D34EE4459C407E2A4BB9D9D5FE9CBFFC3AE377CA25488 ====

-

CUE

REM GENRE Concerto
REM DATE 1996
REM DISCID 610E8F07
REM COMMENT "ExactAudioCopy v1.0b3"
PERFORMER "Robert Levin"
TITLE "Mozart Piano Concertos Nos. 15, K450 & 26, K537 'Coronation'"
FILE "01 Piano Concerto No. 15 in B flat major, K. 450- Allegro.flac" WAVE
  TRACK 01 AUDIO
    TITLE "Piano Concerto No. 15 in B flat major, K. 450: Allegro                       ..."
    PERFORMER "Robert Levin"
    PREGAP 00:00:32
    INDEX 01 00:00:00
FILE "02 Piano Concerto No. 15 in B flat major, K. 450- Andante.flac" WAVE
  TRACK 02 AUDIO
    TITLE "Piano Concerto No. 15 in B flat major, K. 450: Andante                       ..."
    PERFORMER "Robert Levin"
    INDEX 01 00:00:00
FILE "03 Piano Concerto No. 15 in B flat major, K. 450- Allegro.flac" WAVE
  TRACK 03 AUDIO
    TITLE "Piano Concerto No. 15 in B flat major, K. 450: Allegro                       ..."
    PERFORMER "Robert Levin"
    INDEX 01 00:00:00
FILE "04 Piano Concerto No. 26 in D major ('Coronation') K. 537- Allegro.flac" WAVE
  TRACK 04 AUDIO
    TITLE "Piano Concerto No. 26 in D major ('Coronation') K. 537: Allegro              ..."
    PERFORMER "Robert Levin"
    INDEX 01 00:00:00
FILE "05 Piano Concerto No. 26 in D major ('Coronation') K. 537- Larghetto.flac" WAVE
  TRACK 05 AUDIO
    TITLE "Piano Concerto No. 26 in D major ('Coronation') K. 537: Larghetto            ..."
    PERFORMER "Robert Levin"
    INDEX 01 00:00:00
FILE "06 Piano Concerto No. 26 in D major ('Coronation') K. 537- Allegretto.flac" WAVE
  TRACK 06 AUDIO
    TITLE "Piano Concerto No. 26 in D major ('Coronation') K. 537: Allegretto           ..."
    PERFORMER "Robert Levin"
    INDEX 01 00:00:00
FILE "07 Piano Concerto No. 15 in B flat major, K. 450- II- Andante (First Version).flac" WAVE
  TRACK 07 AUDIO
    TITLE "Piano Concerto No. 15 in B flat major, K. 450: II: Andante (First Version)   ..."
    PERFORMER "Robert Levin"
    INDEX 01 00:00:00
-
[teatrix.ru].t9635.torrent 
Торрент: Зарегистрирован [ 2015-10-23 17:11 ] · 7727C07EE7AD88C7482F32C756F54326CB3CCC82

Скачать .torrent

Скачать

13 KB

Статус: проверено
Скачан: 0 раз
Размер: 268 MB
terms.php



Быстрый ответ

Имя:

      
Для отправки сообщений необходимо включить JavaScript
Показать сообщения:    

Текущее время: 10-Дек 13:49

Часовой пояс: UTC + 3


Вы можете начинать темы
Вы можете отвечать на сообщения
Вы не можете редактировать свои сообщения
Вы не можете удалять свои сообщения
Вы не можете голосовать в опросах
Вы не можете прикреплять файлы к сообщениям
Вы можете скачивать файлы