(Classical) Frederic Chopin (Фредерик Шопен) - Wolfgang Amadeus Mozart (Вольвганг Амадей Моцарт) — Piano Concertos № 1 & 26 (Op 11 & KV 537) (Dubravka Tomsic, Marko Munih, Anton Nanut) — 1989, FLAC (tracks+.cue) lossless


Статистика раздачи [Обновить пиров]
Размер:  251 MB   |    Зарегистрирован:  1 год 1 месяц   |    Скачан:  0 раз

Полного источника не было: Никогда

 
   
 
 
 

[Цитировать]

Piano Concertos № 1 & 26 (Op 11 & KV 537)-
Жанр: Classical
Страна-производитель диска: Германия
Год издания диска: 1989
Издатель (лейбл): Michele Audio
Номер по каталогу: SCD-6051
CATALOG: 5016022605128
Композиторы: Frederic Chopin / Wolfgang Amadeus Mozart
Аудио кодек: flac
Тип рипа: tracks+.cue
Битрейт аудио: lossless
Продолжительность: 01h10'29"
Источник: demonoid / thepiratebay
Наличие сканов в содержимом раздачи: да-Треклист:
Frederic Chopin
Piano Concerto № 1 e-moll Op 11
01. I. Allegro maestoso [00h19'24"]
02. II. Romanze. Larghetto [00h07'28"]
03. III. Rondo. Vivace [00h12'02"]-The Ljubljana Symphony Orchestra, cond. Marco Munih, Piano – Dubravka Tomsic-Wolfgang Amadeus Mozart
Piano Concerto № 26 D-Dur KV 537 «Coronation»
04. I. Allegro [00h14'29"]
05. II. Larghetto [00h06'37"]
06. III. Rondo: Allegretto [00h10'30"]-The Ljubljana Symphony Orchestra, cond. Anton Nanut, Piano – Dubravka Tomsic-

EAC log

Exact Audio Copy V0.99 prebeta 4 from 23. January 2008
EAC extraction logfile from 10. March 2009, 11:17
Dubravka Tomsic / Chopin Piano Cencerto No. 1 and Mozart Piano Concerto No. 26
Used drive  : TSSTcorpCD/DVDW TS-L532M   Adapter: 1  ID: 1
Read mode               : Secure
Utilize accurate stream : Yes
Defeat audio cache      : Yes
Make use of C2 pointers : No
Read offset correction                      : 116
Overread into Lead-In and Lead-Out          : No
Fill up missing offset samples with silence : Yes
Delete leading and trailing silent blocks   : No
Null samples used in CRC calculations       : No
Used interface                              : Native Win32 interface for Win NT & 2000
Gap handling                                : Appended to previous track
Used output format              : User Defined Encoder
Selected bitrate                : 1024 kBit/s
Quality                         : High
Add ID3 tag                     : No
Command line compressor         : C:\Program Files\Exact Audio Copy\FLAC\FLAC.EXE
Additional command line options : -6 -V -T "ARTIST=%a" -T "TITLE=%t" -T "ALBUM=%g" -T "DATE=%y" -T "TRACKNUMBER=%n" -T "GENRE=%m" -T "COMMENT=%e" %s -o %d
TOC of the extracted CD
     Track |   Start  |  Length  | Start sector | End sector
    ---------------------------------------------------------
        1  |  0:00.00 | 19:23.50 |         0    |    87274
        2  | 19:23.50 |  7:27.50 |     87275    |   120849
        3  | 26:51.25 | 12:02.33 |    120850    |   175032
        4  | 38:53.58 | 14:28.50 |    175033    |   240182
        5  | 53:22.33 |  6:37.00 |    240183    |   269957
        6  | 59:59.33 | 10:29.65 |    269958    |   317197
Track  1
     Filename E:\Muzika\Mozart\Chopin Piano Cencerto No. 1 and Mozart Piano Concerto No. 26\01. Chopin- Piano Concerto No 1 in E Minor, Op. 11 - Allegro maestoso.wav
     Pre-gap length  0:00:02.00
     Peak level 62.6 %
     Track quality 100.0 %
     Test CRC B076A6CC
     Copy CRC B076A6CC
     Track not present in AccurateRip database
     Copy OK
Track  2
     Filename E:\Muzika\Mozart\Chopin Piano Cencerto No. 1 and Mozart Piano Concerto No. 26\02. Same - Romanze-Larghetto.wav
     Pre-gap length  0:00:02.67
     Peak level 36.3 %
     Track quality 100.0 %
     Test CRC 939F77D2
     Copy CRC 939F77D2
     Track not present in AccurateRip database
     Copy OK
Track  3
     Filename E:\Muzika\Mozart\Chopin Piano Cencerto No. 1 and Mozart Piano Concerto No. 26\03. Same - Rondo- Vivace.wav
     Peak level 59.2 %
     Track quality 100.0 %
     Test CRC 5D5E2C91
     Copy CRC 5D5E2C91
     Track not present in AccurateRip database
     Copy OK
Track  4
     Filename E:\Muzika\Mozart\Chopin Piano Cencerto No. 1 and Mozart Piano Concerto No. 26\04. Mozart- Piano Concerto No. 26 in D Major, K. 537 Coronation - Allegr.wav
     Pre-gap length  0:00:03.50
     Peak level 60.7 %
     Track quality 99.9 %
     Test CRC 7B2360FD
     Copy CRC 7B2360FD
     Track not present in AccurateRip database
     Copy OK
Track  5
     Filename E:\Muzika\Mozart\Chopin Piano Cencerto No. 1 and Mozart Piano Concerto No. 26\05. Same - Larghetto.wav
     Pre-gap length  0:00:02.18
     Peak level 36.9 %
     Track quality 100.0 %
     Test CRC 00C8A3BA
     Copy CRC 00C8A3BA
     Track not present in AccurateRip database
     Copy OK
Track  6
     Filename E:\Muzika\Mozart\Chopin Piano Cencerto No. 1 and Mozart Piano Concerto No. 26\06. Same - Rondo- Allegretto.wav
     Pre-gap length  0:00:01.15
     Peak level 62.0 %
     Track quality 100.0 %
     Test CRC 09B24B39
     Copy CRC 09B24B39
     Track not present in AccurateRip database
     Copy OK
None of the tracks are present in the AccurateRip database
No errors occurred
End of status report

-

CUE

REM DISCID 3A108506
REM COMMENT "ExactAudioCopy v0.99pb4"
PERFORMER "Dubravka Tomsic"
TITLE "Chopin Piano Cencerto No. 1 and Mozart Piano Concerto No. 26"
FILE "Chopin Piano Cencerto No. 1 and Mozart Piano Concerto No. 26\01. Chopin- Piano Concerto No 1 in E Minor, Op. 11 - Allegro maestoso.wav" WAVE
  TRACK 01 AUDIO
    TITLE "Chopin: Piano Concerto No 1 in E Minor, Op. 11 - Allegro maestoso"
    PERFORMER "Dubravka Tomsic"
    INDEX 01 00:00:00
  TRACK 02 AUDIO
    TITLE "Same - Romanze-Larghetto"
    PERFORMER "Dubravka Tomsic"
    INDEX 00 19:20:58
FILE "Chopin Piano Cencerto No. 1 and Mozart Piano Concerto No. 26\02. Same - Romanze-Larghetto.wav" WAVE
    INDEX 01 00:00:00
FILE "Chopin Piano Cencerto No. 1 and Mozart Piano Concerto No. 26\03. Same - Rondo- Vivace.wav" WAVE
  TRACK 03 AUDIO
    TITLE "Same - Rondo: Vivace"
    PERFORMER "Dubravka Tomsic"
    INDEX 01 00:00:00
  TRACK 04 AUDIO
    TITLE "Mozart: Piano Concerto No. 26 in D Major, K. 537 Coronation - Allegr"
    PERFORMER "Dubravka Tomsic"
    INDEX 00 11:58:58
FILE "Chopin Piano Cencerto No. 1 and Mozart Piano Concerto No. 26\04. Mozart- Piano Concerto No. 26 in D Major, K. 537 Coronation - Allegr.wav" WAVE
    INDEX 01 00:00:00
  TRACK 05 AUDIO
    TITLE "Same - Larghetto"
    PERFORMER "Dubravka Tomsic"
    INDEX 00 14:26:32
FILE "Chopin Piano Cencerto No. 1 and Mozart Piano Concerto No. 26\05. Same - Larghetto.wav" WAVE
    INDEX 01 00:00:00
  TRACK 06 AUDIO
    TITLE "Same - Rondo: Allegretto"
    PERFORMER "Dubravka Tomsic"
    INDEX 00 06:35:60
FILE "Chopin Piano Cencerto No. 1 and Mozart Piano Concerto No. 26\06. Same - Rondo- Allegretto.wav" WAVE
    INDEX 01 00:00:00
-
[teatrix.ru].t9636.torrent 
Торрент: Зарегистрирован [ 2015-10-23 17:11 ] · 76B974EC807196A52DB4652810B48C36E9D72318

Скачать .torrent

Скачать

21 KB

Статус: проверено
Скачан: 0 раз
Размер: 251 MB
terms.php



Быстрый ответ

Имя:

      
Для отправки сообщений необходимо включить JavaScript
Показать сообщения:    

Текущее время: 08-Дек 07:06

Часовой пояс: UTC + 3


Вы можете начинать темы
Вы можете отвечать на сообщения
Вы не можете редактировать свои сообщения
Вы не можете удалять свои сообщения
Вы не можете голосовать в опросах
Вы не можете прикреплять файлы к сообщениям
Вы можете скачивать файлы