(Classical) Angelo Gilardino - Guitar Concertos - Angelo Marchese, Alberto Mesirca, Cristiano Porqueddu, Winds of the Orchestra da Camera Siciliana, GliArchiEnsemble, Crapisi, Orchestra del Teatro Olimpico, Bisanti - 2014, FLAC (image+.cue) lossless


Статистика раздачи [Обновить пиров]
Размер:  278 MB   |    Зарегистрирован:  1 год 1 месяц   |    Скачан:  0 раз

Полного источника не было: Никогда

 
   
 
 
 

[Цитировать]

Angelo Gilardino - Guitar Concertos - Angelo Marchese, Alberto Mesirca, Cristiano Porqueddu, Winds of the Orchestra da Camera Siciliana, GliArchiEnsemble, Crapisi, Orchestra del Teatro Olimpico, Bisanti
Жанр: Classical
Год издания диска: 2014
Издатель (лейбл): Brilliant Classics
Номер по каталогу: 94747
Дата записи: 2012,2013
Аудиокодек: FLAC
Тип рипа: image+.cue
Битрейт аудио: lossless
Продолжительность: 71:54
Источник: собственный рип
Наличие сканов в содержимом раздачи: да
Треклист:
Angelo Gilardino (b.1941)
[1]-[3] Concertino di Hykkara (2012)
[4]-[6] Concertino del falco (2011)
[7]-[9] Concerto di Oliena (2007)
Исполнители:
Angelo Marchese guitar ([1]-[3])
Winds of the Orchestra da Camera Siciliana ([1]-[3])
GliArchiEnsemble ([1]-[3])
Giuseppe Crapisi conductor ([1]-[3])
Alberto Mesirca guitar ([4]-[6])
Orchestra del Teatro Olimpico ([4]-[6])
Giampaolo Maria Bisanti conductor ([4]-[6])
Cristiano Porqueddu guitar ([7]-[9])
Synfonica-Orchestre de Chambre de la Vallée d’Aoste ([7]-[9])
Luciano Condina conductor ([7]-[9])

Лог создания рипа

Exact Audio Copy V1.1 from 23. June 2015
EAC extraction logfile from 26. July 2015, 18:50
- / Gilardino - Guitar Concertos
Used drive : HL-DT-STDVDRAM GU70N Adapter: 1 ID: 0
Read mode : SecureUtilize accurate stream : YesDefeat audio cache : YesMake use of C2 pointers : No
Read offset correction : 48Overread into Lead-In and Lead-Out : NoFill up missing offset samples with silence : YesDelete leading and trailing silent blocks : NoNull samples used in CRC calculations : YesUsed interface : Native Win32 interface for Win NT & 2000
Used output format : User Defined EncoderSelected bitrate : 128 kBit/sQuality : HighAdd ID3 tag : NoCommand line compressor : C:\Program Files (x86)\Exact Audio Copy\Flac\flac.exeAdditional command line options : -V -8 -T "Date=%year%" -T "Genre=%genre%" %source%
TOC of the extracted CD
Track | Start | Length | Start sector | End sector --------------------------------------------------------- 1 | 0:00.00 | 8:23.30 | 0 | 37754 2 | 8:23.30 | 7:05.09 | 37755 | 69638 3 | 15:28.39 | 6:48.07 | 69639 | 100245 4 | 22:16.46 | 8:22.56 | 100246 | 137951 5 | 30:39.27 | 8:01.20 | 137952 | 174046 6 | 38:40.47 | 5:43.14 | 174047 | 199785 7 | 44:23.61 | 12:21.01 | 199786 | 255361 8 | 56:44.62 | 6:54.00 | 255362 | 286411 9 | 63:38.62 | 8:16.00 | 286412 | 323611
Range status and errors
Selected range
Filename C:\temp\Gilardino - Guitar Concertos\Gilardino - Guitar Concertos.wav
Peak level 97.7 % Extraction speed 2.3 X Range quality 100.0 % Test CRC 83B07AE4 Copy CRC 83B07AE4 Copy OK
No errors occurred
AccurateRip summary
Track 1 accurately ripped (confidence 1) [470727D4] (AR v2)Track 2 accurately ripped (confidence 1) [FCCF6001] (AR v2)Track 3 accurately ripped (confidence 1) [78880B28] (AR v2)Track 4 accurately ripped (confidence 1) [3C4A049C] (AR v2)Track 5 accurately ripped (confidence 1) [DD5BF7E6] (AR v2)Track 6 accurately ripped (confidence 1) [81677F1D] (AR v2)Track 7 accurately ripped (confidence 1) [BFBD1C1D] (AR v2)Track 8 accurately ripped (confidence 1) [9AED08C3] (AR v2)Track 9 accurately ripped (confidence 1) [F3314D34] (AR v2)
All tracks accurately ripped
End of status report
==== Log checksum 2C134F7B91573F8906065D10CFFD92BA0F187B5C92E0750356151B40F797269D ====
[teatrix.ru].t9637.torrent 
Торрент: Зарегистрирован [ 2015-10-23 17:11 ] · A5C06B310E54E9E38896BB158CE8EA826F5342A3

Скачать .torrent

Скачать

23 KB

Статус: проверено
Скачан: 0 раз
Размер: 278 MB
terms.php



Быстрый ответ

Имя:

      
Для отправки сообщений необходимо включить JavaScript
Показать сообщения:    

Текущее время: 10-Дек 00:23

Часовой пояс: UTC + 3


Вы можете начинать темы
Вы можете отвечать на сообщения
Вы не можете редактировать свои сообщения
Вы не можете удалять свои сообщения
Вы не можете голосовать в опросах
Вы не можете прикреплять файлы к сообщениям
Вы можете скачивать файлы