(Classical) Wolfgang Amadeus Mozart — Piano Concertos № 21 & 24 (KV 467 & 491) (Dubravka Tomsic, Anton Nanut) — 1988, FLAC (tracks+.cue) lossless


Статистика раздачи [Обновить пиров]
Размер:  225 MB   |    Зарегистрирован:  1 год 1 месяц   |    Скачан:  0 раз

Полного источника не было: Никогда

 
   
 
 
 

[Цитировать]

Piano Concertos № 21 & 24 (KV 467 & 491)-
Жанр: Classical
Страна-производитель диска: Германия
Год издания диска: 1988
Издатель (лейбл): Michele Audio
Номер по каталогу: SCD-6029
CATALOG: 5016022602929
Композитор: Wolfgang Amadeus Mozart
Аудио кодек: flac
Тип рипа: tracks+.cue
Битрейт аудио: lossless
Продолжительность: 00h57'26"
Источник: demonoid / thepiratebay
Наличие сканов в содержимом раздачи: да-Треклист:
Piano Concerto № 21 C-Dur KV 467 «Elvira Madigan»
01. I. Allegro [00h13'34"]
02. II. Andante [00h07'41"]
03. III. Allegro vivace assai [00h05'56"]
Piano Concerto № 24 c-moll KV 491
04. I. Allegro [00h14'17"]
05. II. Larghetto [00h07'16"]
06. III. Allegretto [00h08'43"]-The Ljubljana Symphony Orchestra, cond. Anton Nanut, Piano – Dubravka Tomsic-

EAC log

Exact Audio Copy V0.99 prebeta 4 from 23. January 2008
EAC extraction logfile from 10. March 2009, 10:44
Mozart / Piano Concertos 21 & 24
Used drive  : TSSTcorpCD/DVDW TS-L532M   Adapter: 1  ID: 1
Read mode               : Secure
Utilize accurate stream : Yes
Defeat audio cache      : Yes
Make use of C2 pointers : No
Read offset correction                      : 116
Overread into Lead-In and Lead-Out          : No
Fill up missing offset samples with silence : Yes
Delete leading and trailing silent blocks   : No
Null samples used in CRC calculations       : No
Used interface                              : Native Win32 interface for Win NT & 2000
Gap handling                                : Appended to previous track
Used output format              : User Defined Encoder
Selected bitrate                : 1024 kBit/s
Quality                         : High
Add ID3 tag                     : No
Command line compressor         : C:\Program Files\Exact Audio Copy\FLAC\FLAC.EXE
Additional command line options : -6 -V -T "ARTIST=%a" -T "TITLE=%t" -T "ALBUM=%g" -T "DATE=%y" -T "TRACKNUMBER=%n" -T "GENRE=%m" -T "COMMENT=%e" %s -o %d
TOC of the extracted CD
     Track |   Start  |  Length  | Start sector | End sector
    ---------------------------------------------------------
        1  |  0:00.00 | 13:33.48 |         0    |    61022
        2  | 13:33.48 |  7:40.72 |     61023    |    95594
        3  | 21:14.45 |  5:55.43 |     95595    |   122262
        4  | 27:10.13 | 14:16.47 |    122263    |   186509
        5  | 41:26.60 |  7:16.03 |    186510    |   219212
        6  | 48:42.63 |  8:42.60 |    219213    |   258422
Track  1
     Filename E:\Muzika\Mozart\Piano Concertos 21 & 24\01. Piano Concerto Nє 21 in C Major, K 467 - 1. Allegro.wav
     Pre-gap length  0:00:02.00
     Peak level 58.6 %
     Track quality 100.0 %
     Test CRC 00E9BFE9
     Copy CRC 6BAE79A9
     Track not present in AccurateRip database
     Copy OK
Track  2
     Filename E:\Muzika\Mozart\Piano Concertos 21 & 24\02. Piano Concerto Nє 21 in C Major, K 467 - 2. Andante.wav
     Pre-gap length  0:00:01.58
     Peak level 36.6 %
     Track quality 100.0 %
     Test CRC 265ED93F
     Copy CRC 265ED93F
     Accurately ripped (confidence 3)  [6327A78B]
     Copy OK
Track  3
     Filename E:\Muzika\Mozart\Piano Concertos 21 & 24\03. Piano Concerto Nє 21 in C Major, K 467 - 3. Allegro vivace assai.wav
     Pre-gap length  0:00:02.37
     Peak level 87.0 %
     Track quality 100.0 %
     Test CRC 21B75B77
     Copy CRC 21B75B77
     Accurately ripped (confidence 3)  [77C8476C]
     Copy OK
Track  4
     Filename E:\Muzika\Mozart\Piano Concertos 21 & 24\04. Piano Concerto Nє 24 in C Minor, K 491 - 1. Allegro.wav
     Pre-gap length  0:00:03.65
     Peak level 94.0 %
     Track quality 100.0 %
     Test CRC 213DD7F3
     Copy CRC 721E87EC
     Cannot be verified as accurate (confidence 2)  [BDBAD1F8], AccurateRip returned [24947E10]
     Copy OK
Track  5
     Filename E:\Muzika\Mozart\Piano Concertos 21 & 24\05. Piano Concerto Nє 24 in C Minor, K 491 - 2. Larghetto.wav
     Pre-gap length  0:00:01.70
     Peak level 31.8 %
     Track quality 100.0 %
     Test CRC 2C870FA7
     Copy CRC 2C870FA7
     Accurately ripped (confidence 3)  [8D93A73F]
     Copy OK
Track  6
     Filename E:\Muzika\Mozart\Piano Concertos 21 & 24\06. Piano Concerto Nє 24 in C Minor, K 491 - 3. Allegretto.wav
     Pre-gap length  0:00:01.18
     Peak level 99.2 %
     Track quality 100.0 %
     Test CRC ABD42933
     Copy CRC ABD42933
     Accurately ripped (confidence 3)  [65DFACC9]
     Copy OK
4 track(s) accurately ripped
1 track(s) could not be verified as accurate
1 track(s) not present in the AccurateRip database
Some tracks could not be verified as accurate
No errors occurred
End of status report

-

CUE

REM GENRE Classical
REM DATE 1987
REM DISCID 530D7506
REM COMMENT "ExactAudioCopy v0.99pb4"
PERFORMER "Mozart"
TITLE "Piano Concertos 21 & 24"
FILE "Piano Concertos 21 & 24\01. Piano Concerto Nє 21 in C Major, K 467 - 1. Allegro.wav" WAVE
  TRACK 01 AUDIO
    TITLE "Piano Concerto Nє 21 in C Major, K 467 - 1. Allegro"
    PERFORMER "Mozart"
    INDEX 01 00:00:00
  TRACK 02 AUDIO
    TITLE "Piano Concerto Nє 21 in C Major, K 467 - 2. Andante"
    PERFORMER "Mozart"
    INDEX 00 13:31:65
FILE "Piano Concertos 21 & 24\02. Piano Concerto Nє 21 in C Major, K 467 - 2. Andante.wav" WAVE
    INDEX 01 00:00:00
  TRACK 03 AUDIO
    TITLE "Piano Concerto Nє 21 in C Major, K 467 - 3. Allegro vivace assai"
    PERFORMER "Mozart"
    INDEX 00 07:38:35
FILE "Piano Concertos 21 & 24\03. Piano Concerto Nє 21 in C Major, K 467 - 3. Allegro vivace assai.wav" WAVE
    INDEX 01 00:00:00
  TRACK 04 AUDIO
    TITLE "Piano Concerto Nє 24 in C Minor, K 491 - 1. Allegro"
    PERFORMER "Mozart"
    INDEX 00 05:51:53
FILE "Piano Concertos 21 & 24\04. Piano Concerto Nє 24 in C Minor, K 491 - 1. Allegro.wav" WAVE
    INDEX 01 00:00:00
  TRACK 05 AUDIO
    TITLE "Piano Concerto Nє 24 in C Minor, K 491 - 2. Larghetto"
    PERFORMER "Mozart"
    INDEX 00 14:14:52
FILE "Piano Concertos 21 & 24\05. Piano Concerto Nє 24 in C Minor, K 491 - 2. Larghetto.wav" WAVE
    INDEX 01 00:00:00
  TRACK 06 AUDIO
    TITLE "Piano Concerto Nє 24 in C Minor, K 491 - 3. Allegretto"
    PERFORMER "Mozart"
    INDEX 00 07:14:60
FILE "Piano Concertos 21 & 24\06. Piano Concerto Nє 24 in C Minor, K 491 - 3. Allegretto.wav" WAVE
    INDEX 01 00:00:00
-
[teatrix.ru].t9638.torrent 
Торрент: Зарегистрирован [ 2015-10-23 17:11 ] · 9163B10B5E3D5C16FF65FD407F390E555573B23B

Скачать .torrent

Скачать

19 KB

Статус: проверено
Скачан: 0 раз
Размер: 225 MB
terms.php



Быстрый ответ

Имя:

      
Для отправки сообщений необходимо включить JavaScript
Показать сообщения:    

Текущее время: 10-Дек 07:58

Часовой пояс: UTC + 3


Вы можете начинать темы
Вы можете отвечать на сообщения
Вы не можете редактировать свои сообщения
Вы не можете удалять свои сообщения
Вы не можете голосовать в опросах
Вы не можете прикреплять файлы к сообщениям
Вы можете скачивать файлы