(Classical) Mozart, Weber, M.Haydn, Stamitz - Bassoon Concertos - Laurence Perkins, Manchester Camerata, Douglas Boyd - 2002, FLAC (image+.cue) lossless


Статистика раздачи [Обновить пиров]
Размер:  270 MB   |    Зарегистрирован:  1 год 1 месяц   |    Скачан:  2 раза

Полного источника не было: 1 месяц 20 дней

Личеров:  1  [  0 KB/s  ]   Подробная статистика пиров
 
   
 
 
 

[Цитировать]

Mozart, Weber, M.Haydn, Stamitz - Bassoon Concertos - Laurence Perkins, Manchester Camerata, Douglas Boyd
Жанр: Classical
Страна-производитель диска: UK
Год издания диска: 2002
Издатель (лейбл): Hyperion
Номер по каталогу: CDA67288
Дата записи: 2001
Аудиокодек: FLAC
Тип рипа: image+.cue
Битрейт аудио: lossless
Продолжительность: 71:54
Источник: собственный рип
Наличие сканов в содержимом раздачи: да
Треклист:
Bassoon Concertos
Wolfgang Amadeus Mozart
[1]-[3] Concerto in B flat major, K191 (K186e)
Michael Haydn
[4] Concertino in B flat major
Karl Stamitz
[5]-[7] Concerto in F major
Carl Maria von Weber
[8]-[9] Andante e Rondo Ungarese, Op.35
[10]-[12] Concerto in F major, Op.75
Исполнители:
Laurence Perkins bassoon
Manchester Camerata
Douglas Boyd
conductor

Лог создания рипа

Exact Audio Copy V1.0 beta 3 from 29. August 2011
EAC extraction logfile from 8. February 2015, 18:05
Laurence Perkins, Manchester Camerata, Douglas Boyd / Bassoon Concertos
Used drive : HL-DT-STDVDRAM GU70N Adapter: 0 ID: 0
Read mode : SecureUtilize accurate stream : YesDefeat audio cache : YesMake use of C2 pointers : No
Read offset correction : 48Overread into Lead-In and Lead-Out : NoFill up missing offset samples with silence : YesDelete leading and trailing silent blocks : NoNull samples used in CRC calculations : YesUsed interface : Native Win32 interface for Win NT & 2000
Used output format : User Defined EncoderSelected bitrate : 128 kBit/sQuality : HighAdd ID3 tag : NoCommand line compressor : C:\Program Files (x86)\Exact Audio Copy\Flac\flac.exeAdditional command line options : -V -8 -T "Date=%year%" -T "Genre=%genre%" %source%
TOC of the extracted CD
Track | Start | Length | Start sector | End sector --------------------------------------------------------- 1 | 0:00.00 | 7:23.04 | 0 | 33228 2 | 7:23.04 | 6:34.66 | 33229 | 62844 3 | 13:57.70 | 4:28.29 | 62845 | 82973 4 | 18:26.24 | 7:22.58 | 82974 | 116181 5 | 25:49.07 | 7:27.11 | 116182 | 149717 6 | 33:16.18 | 5:06.42 | 149718 | 172709 7 | 38:22.60 | 4:26.34 | 172710 | 192693 8 | 42:49.19 | 4:56.16 | 192694 | 214909 9 | 47:45.35 | 6:04.40 | 214910 | 242249 10 | 53:50.00 | 8:41.66 | 242250 | 281390 11 | 62:31.66 | 4:34.42 | 281391 | 301982 12 | 67:06.33 | 4:45.51 | 301983 | 323408
Range status and errors
Selected range
Filename C:\temp\CDA67288 - Mozart, Weber, M.Haydn, Stamitz - Bassoon Concertos\Bassoon Concertos.wav
Peak level 95.9 % Extraction speed 2.1 X Range quality 100.0 % Test CRC 91BC3627 Copy CRC 91BC3627 Copy OK
No errors occurred
AccurateRip summary
Track 1 accurately ripped (confidence 2) [3F4ED214] (AR v1)Track 2 accurately ripped (confidence 2) [FDE1EF14] (AR v1)Track 3 accurately ripped (confidence 2) [93B4392B] (AR v1)Track 4 accurately ripped (confidence 2) [ED871EE1] (AR v1)Track 5 accurately ripped (confidence 2) [EF7EC788] (AR v1)Track 6 accurately ripped (confidence 2) [7119164B] (AR v1)Track 7 accurately ripped (confidence 2) [C26DE5CE] (AR v1)Track 8 accurately ripped (confidence 2) [360B7E44] (AR v1)Track 9 accurately ripped (confidence 2) [7865A675] (AR v1)Track 10 accurately ripped (confidence 2) [476D2E07] (AR v1)Track 11 accurately ripped (confidence 2) [4AD32D87] (AR v1)Track 12 accurately ripped (confidence 2) [93002926] (AR v1)
All tracks accurately ripped
End of status report
==== Log checksum CDA9B6DA6A852546F6DD2B25B40278D56A5B26E20200E4A1B00DFF374BC71E4D ====
[teatrix.ru].t9639.torrent 
Торрент: Зарегистрирован [ 2015-10-23 17:11 ] · E2CBBE73006BA859950C2193232D4182E199C703

Скачать .torrent

Скачать

22 KB

Статус: проверено
Скачан: 2 раз
Размер: 270 MB
terms.php



Быстрый ответ

Имя:

      
Для отправки сообщений необходимо включить JavaScript
Показать сообщения:    

Текущее время: 04-Дек 02:56

Часовой пояс: UTC + 3


Вы можете начинать темы
Вы можете отвечать на сообщения
Вы не можете редактировать свои сообщения
Вы не можете удалять свои сообщения
Вы не можете голосовать в опросах
Вы не можете прикреплять файлы к сообщениям
Вы можете скачивать файлы