(Classical) Johann Sebastian Bach · Die Brandenburgischen Konzerte / Brandenburg Concertos (Italiano Concerto & Rinaldo Alessandrini) · 2005, FLAC (tracks+.cue) lossless


Статистика раздачи [Обновить пиров]
Размер:  536 MB   |    Зарегистрирован:  1 год 1 месяц   |    Скачан:  0 раз

Полного источника не было: Никогда

Личеров:  1  [  0 KB/s  ]   Подробная статистика пиров
 
   
 
 
 

[Цитировать]

Johann Sebastian Bach
Brandenburg Concertos

Жанр: classical
Страна-производитель диска: France
Год издания диска: 2005
Издатель: naïve
Номер по каталогу: OP 30412
Дата записи: март 2005
Аудиокодек: FLAC
Тип рипа: tracks+.cue
Битрейт аудио: lossless
Продолжительность: 01:39:29
Источник: скачано с what.cd
Буклет в содержимом раздачи паршивенького качества
Исполнители: Concerto Italiano, Rinaldo Alessandrini
См. также DVD

CD 1

Brandenburg Concerto No. 1 in F Major, BWV 1046
01. [...] (3:40)
02. Adagio (4:02)
03. Allegro (4:17)
04. Menuet (1:04)
05. Trio à 2 Hautbois è Bassono. Corni è Viole tacent. (1:11)
06. Menuet repetat (1:07)
07. Poloinesse. Tutti Violini è Viole mà piano. Viollino piccolo tacet. (1:44)
08. Menuet ab inizio (1:06)
09. Trio à Corni & 3 Hautbois in unissono. (0:57)
10. Menuet [...] ab inizio – avec Grande Reprise (1:47)
Brandenburg Concerto No. 2 in F Major, BWV 1047
11. [...] (4:24)
12. Andante (4:12)
13. Allegro Assai (2:36)
Brandenburg Concerto No. 3 in G Major, BWV 1048
14. [...] (5:37)
15. Adagio. Allegro (4:20)
Cantata BWV 174 „Ich liebe den Höchsten von ganzem Gemüte“
16. Sinfonia (5:36)

Лог создания рипа

Exact Audio Copy V1.0 beta 4 from 7. December 2014
EAC extraction logfile from 20. April 2015, 18:26
Bach, Johann Sebastian / Brandenburg Concertos (Disc 1)
Used drive : hp DVDRAM GU90N Adapter: 1 ID: 0
Read mode : SecureUtilize accurate stream : YesDefeat audio cache : YesMake use of C2 pointers : No
Read offset correction : 102Overread into Lead-In and Lead-Out : NoFill up missing offset samples with silence : YesDelete leading and trailing silent blocks : NoNull samples used in CRC calculations : YesUsed interface : Native Win32 interface for Win NT & 2000Gap handling : Appended to previous track
Used output format : User Defined EncoderSelected bitrate : 1024 kBit/sQuality : HighAdd ID3 tag : NoCommand line compressor : C:\Program Files (x86)\Exact Audio Copy\Flac\flac.exeAdditional command line options : -8 -V -T "ARTIST=%artist%" -T "TITLE=%title%" -T "ALBUM=%albumtitle%" -T "DATE=%year%" -T "TRACKNUMBER=%tracknr%" -T "GENRE=%genre%" -T "PERFORMER=%albuminterpret%" -T "COMPOSER=%composer%" %haslyrics%--tag-from-file=LYRICS="%lyricsfile%"%haslyrics% -T "ALBUMARTIST=%albumartist%" -T "DISCNUMBER=%cdnumber%" -T "TOTALDISCS=%totalcds%" -T "TOTALTRACKS=%numtracks%" -T "COMMENT=%comment%" %source% -o %dest%
TOC of the extracted CD
Track | Start | Length | Start sector | End sector --------------------------------------------------------- 1 | 0:00.00 | 3:39.38 | 0 | 16462 2 | 3:39.38 | 4:02.29 | 16463 | 34641 3 | 7:41.67 | 4:17.10 | 34642 | 53926 4 | 11:59.02 | 1:03.42 | 53927 | 58693 5 | 13:02.44 | 1:10.66 | 58694 | 64009 6 | 14:13.35 | 1:06.45 | 64010 | 69004 7 | 15:20.05 | 1:43.49 | 69005 | 76778 8 | 17:03.54 | 1:06.24 | 76779 | 81752 9 | 18:10.03 | 0:56.67 | 81753 | 86019 10 | 19:06.70 | 1:47.08 | 86020 | 94052 11 | 20:54.03 | 4:23.60 | 94053 | 113837 12 | 25:17.63 | 4:12.17 | 113838 | 132754 13 | 29:30.05 | 2:35.43 | 132755 | 144422 14 | 32:05.48 | 5:36.66 | 144423 | 169688 15 | 37:42.39 | 4:20.26 | 169689 | 189214 16 | 42:02.65 | 5:36.00 | 189215 | 214414
Track 1
Filename C:\Users\Mariko\Music\01 - Concerto No. 1 in F Major BWV 1046- [...].wav
Pre-gap length 0:00:02.00
Peak level 98.2 % Extraction speed 2.4 X Track quality 100.0 % Test CRC 6D3A0480 Copy CRC 6D3A0480 Accurately ripped (confidence 33) [8599D827] (AR v2) Copy OK
Track 2
Filename C:\Users\Mariko\Music\02 - Concerto No. 1 in F Major BWV 1046- Adagio.wav
Peak level 40.6 % Extraction speed 2.1 X Track quality 100.0 % Test CRC 32BB0ED7 Copy CRC 32BB0ED7 Accurately ripped (confidence 33) [6797C443] (AR v2) Copy OK
Track 3
Filename C:\Users\Mariko\Music\03 - Concerto No. 1 in F Major BWV 1046- Allegro.wav
Peak level 81.4 % Extraction speed 1.5 X Track quality 100.0 % Test CRC 8D125B7E Copy CRC 8D125B7E Accurately ripped (confidence 33) [EB923BD2] (AR v2) Copy OK
Track 4
Filename C:\Users\Mariko\Music\04 - Concerto No. 1 in F Major BWV 1046- Minuet.wav
Peak level 84.3 % Extraction speed 1.9 X Track quality 100.0 % Test CRC E0106EB2 Copy CRC E0106EB2 Accurately ripped (confidence 33) [4D71651E] (AR v2) Copy OK
Track 5
Filename C:\Users\Mariko\Music\05 - Concerto No. 1 in F Major BWV 1046- Trio & 2 Hautbois è Bassono. Corni è Viole tacent..wav
Peak level 34.3 % Extraction speed 2.4 X Track quality 100.0 % Test CRC E430E8B9 Copy CRC E430E8B9 Accurately ripped (confidence 33) [CF94900F] (AR v2) Copy OK
Track 6
Filename C:\Users\Mariko\Music\06 - Concerto No. 1 in F Major BWV 1046- Menuet repetat.wav
Peak level 84.4 % Extraction speed 2.4 X Track quality 100.0 % Test CRC 49CFA3C4 Copy CRC 49CFA3C4 Accurately ripped (confidence 33) [9C454893] (AR v2) Copy OK
Track 7
Filename C:\Users\Mariko\Music\07 - Concerto No. 1 in F Major BWV 1046- Poloinesse. Tutti Violini è Viole mà piano. Viollino piccolo tacet.wav
Peak level 26.5 % Extraction speed 2.8 X Track quality 100.0 % Test CRC 9CDB5989 Copy CRC 9CDB5989 Accurately ripped (confidence 33) [A1BCC210] (AR v2) Copy OK
Track 8
Filename C:\Users\Mariko\Music\08 - Concerto No. 1 in F Major BWV 1046- Menuet ab inizio.wav
Peak level 86.1 % Extraction speed 2.4 X Track quality 100.0 % Test CRC 7E5AF9D9 Copy CRC 7E5AF9D9 Accurately ripped (confidence 33) [A577AD75] (AR v2) Copy OK
Track 9
Filename C:\Users\Mariko\Music\09 - Concerto No. 1 in F Major BWV 1046- Trio à Corni & 3 Hautbois in unisono..wav
Peak level 68.9 % Extraction speed 2.4 X Track quality 100.0 % Test CRC 2EFD9D9F Copy CRC 2EFD9D9F Accurately ripped (confidence 33) [4E307061] (AR v2) Copy OK
Track 10
Filename C:\Users\Mariko\Music\10 - Concerto No. 1 in F Major BWV 1046- Menuet [...] ab inizio - avec Grande Reprise.wav
Peak level 91.3 % Extraction speed 2.9 X Track quality 100.0 % Test CRC 108A0DE6 Copy CRC 108A0DE6 Accurately ripped (confidence 33) [0FA579DF] (AR v2) Copy OK
Track 11
Filename C:\Users\Mariko\Music\11 - Concerto No. 2 in F Major BWV 1047- [...].wav
Peak level 75.2 % Extraction speed 3.7 X Track quality 100.0 % Test CRC C423DDC1 Copy CRC C423DDC1 Accurately ripped (confidence 33) [ACEF17E6] (AR v2) Copy OK
Track 12
Filename C:\Users\Mariko\Music\12 - Concerto No. 2 in F Major BWV 1047- Andante.wav
Peak level 38.2 % Extraction speed 3.8 X Track quality 100.0 % Test CRC 07B37190 Copy CRC 07B37190 Accurately ripped (confidence 33) [A7744A70] (AR v2) Copy OK
Track 13
Filename C:\Users\Mariko\Music\13 - Concerto No. 2 in F Major BWV 1047- Allegro Assai.wav
Peak level 62.3 % Extraction speed 3.7 X Track quality 100.0 % Test CRC F781DD1C Copy CRC F781DD1C Accurately ripped (confidence 33) [065570DF] (AR v2) Copy OK
Track 14
Filename C:\Users\Mariko\Music\14 - Concerto No. 3 in G Major BWV 1048- [...].wav
Peak level 72.7 % Extraction speed 4.3 X Track quality 100.0 % Test CRC 9C90BEA3 Copy CRC 9C90BEA3 Accurately ripped (confidence 33) [1C5E54D9] (AR v2) Copy OK
Track 15
Filename C:\Users\Mariko\Music\15 - Concerto No. 3 in G Major BWV 1048- Adagio. Allegro.wav
Peak level 71.4 % Extraction speed 4.4 X Track quality 100.0 % Test CRC 8AA5A9C8 Copy CRC 8AA5A9C8 Accurately ripped (confidence 33) [AFAF9C2C] (AR v2) Copy OK
Track 16
Filename C:\Users\Mariko\Music\16 - Sinfonia [Cantata BWV 174, ''Ich liebe den Höchsten von ganzem Gemüte''].wav
Peak level 100.0 % Extraction speed 4.0 X Track quality 99.9 % Test CRC 940F0F9C Copy CRC 940F0F9C Accurately ripped (confidence 31) [8D2A91C2] (AR v2) Copy OK
All tracks accurately ripped
No errors occurred
End of status report
---- CUETools DB Plugin V2.1.4
[CTDB TOCID: 3i.mxHQ72vh_c1EybL89W8tyQF8-] foundSubmit result: 3i.mxHQ72vh_c1EybL89W8tyQF8- has been confirmedTrack | CTDB Status 1 | (32/32) Accurately ripped 2 | (32/32) Accurately ripped 3 | (32/32) Accurately ripped 4 | (32/32) Accurately ripped 5 | (32/32) Accurately ripped 6 | (32/32) Accurately ripped 7 | (32/32) Accurately ripped 8 | (32/32) Accurately ripped 9 | (31/32) Accurately ripped 10 | (32/32) Accurately ripped 11 | (32/32) Accurately ripped 12 | (32/32) Accurately ripped 13 | (32/32) Accurately ripped 14 | (32/32) Accurately ripped 15 | (32/32) Accurately ripped 16 | (31/32) Accurately ripped
==== Log checksum 2A817AB38976D1D2BEEB9FF13F7FF56C44C901E15386FBD8E58D68AC0ACAD6E4 ====

Содержание индексной карты (.CUE)

REM DATE 2005REM DISCID CF0B2A10REM COMMENT "ExactAudioCopy v1.0b4"PERFORMER "Concerto Italiano & Rinaldo Alessandrin"TITLE "Brandenburg Concertos"FILE "01. [...].wav" WAVE TRACK 01 AUDIO TITLE "[...]" PERFORMER "Concerto Italiano & Rinaldo Alessandrini" INDEX 01 00:00:00FILE "02. Adagio.wav" WAVE TRACK 02 AUDIO TITLE "Adagio" PERFORMER "Concerto Italiano & Rinaldo Alessandrini" INDEX 01 00:00:00FILE "03. Allegro.wav" WAVE TRACK 03 AUDIO TITLE "Allegro" PERFORMER "Concerto Italiano & Rinaldo Alessandrini" INDEX 01 00:00:00FILE "04. Menuet.wav" WAVE TRACK 04 AUDIO TITLE "Menuet" PERFORMER "Concerto Italiano & Rinaldo Alessandrini" INDEX 01 00:00:00FILE "05. Trio à 2 Hautbois è Bassono. Corni è Viole tacent.wav" WAVE TRACK 05 AUDIO TITLE "Trio à 2 Hautbois è Bassono. Corni è Viole tacent." PERFORMER "Concerto Italiano & Rinaldo Alessandrini" INDEX 01 00:00:00FILE "06. Menuet repetat.wav" WAVE TRACK 06 AUDIO TITLE "Menuet repetat" PERFORMER "Concerto Italiano & Rinaldo Alessandrini" INDEX 01 00:00:00FILE "07. Poloinesse. Tutti Violini è Viole mà piano. Viollino piccolo tacet.wav" WAVE TRACK 07 AUDIO TITLE "Poloinesse. Tutti Violini è Viole mà piano. Viollino piccolo tacet." PERFORMER "Concerto Italiano & Rinaldo Alessandrini" INDEX 01 00:00:00FILE "08. Menuet ab inizio.wav" WAVE TRACK 08 AUDIO TITLE "Menuet ab inizio" PERFORMER "Concerto Italiano & Rinaldo Alessandrini" INDEX 01 00:00:00FILE "09. Trio à Corni & 3 Hautbois in unissono.wav" WAVE TRACK 09 AUDIO TITLE "Trio à Corni & 3 Hautbois in unissono." PERFORMER "Concerto Italiano & Rinaldo Alessandrini" INDEX 01 00:00:00FILE "10. Menuet [...] ab inizio – avec Grande Reprise.wav" WAVE TRACK 10 AUDIO TITLE "Menuet [...] ab inizio – avec Grande Reprise" PERFORMER "Concerto Italiano & Rinaldo Alessandrini" INDEX 01 00:00:00FILE "11. [...].wav" WAVE TRACK 11 AUDIO TITLE "[...]" PERFORMER "Concerto Italiano & Rinaldo Alessandrini" INDEX 01 00:00:00FILE "12. Andante.wav" WAVE TRACK 12 AUDIO TITLE "Andante" PERFORMER "Concerto Italiano & Rinaldo Alessandrini" INDEX 01 00:00:00FILE "13. Allegro Assai.wav" WAVE TRACK 13 AUDIO TITLE "Allegro Assai" PERFORMER "Concerto Italiano & Rinaldo Alessandrini" INDEX 01 00:00:00FILE "14. [...].wav" WAVE TRACK 14 AUDIO TITLE "[...]" PERFORMER "Concerto Italiano & Rinaldo Alessandrini" INDEX 01 00:00:00FILE "15. Adagio. Allegro.wav" WAVE TRACK 15 AUDIO TITLE "Adagio. Allegro" PERFORMER "Concerto Italiano & Rinaldo Alessandrini" INDEX 01 00:00:00FILE "16. Sinfonia.wav" WAVE TRACK 16 AUDIO TITLE "Sinfonia" PERFORMER "Concerto Italiano & Rinaldo Alessandrini" INDEX 01 00:00:00

CD 2

Brandenburg Concerto No. 4 in G major, BWV 1049
01. Allegro (6:20)
02. Andante (3:37)
03. Presto (4:34)
Brandenburg Concerto No. 5 in D Major, BWV 1050
04. Allegro (9:41)
05. Affettuoso (5:35)
06. Allegro (5:04)
07. Cadenza (1:45)
Brandenburg Concerto No. 6 in B-Flat Major, BWV 1051
08. [...] (5:12)
09. Adagio, mà non tanto (4:35)
10. Allegro (5:27)

Лог создания рипа

Exact Audio Copy V1.0 beta 4 from 7. December 2014
EAC extraction logfile from 20. April 2015, 19:03
Bach, Johann Sebastian / Brandenburg Concertos (Disc 2)
Used drive : hp DVDRAM GU90N Adapter: 1 ID: 0
Read mode : SecureUtilize accurate stream : YesDefeat audio cache : YesMake use of C2 pointers : No
Read offset correction : 102Overread into Lead-In and Lead-Out : NoFill up missing offset samples with silence : YesDelete leading and trailing silent blocks : NoNull samples used in CRC calculations : YesUsed interface : Native Win32 interface for Win NT & 2000Gap handling : Appended to previous track
Used output format : User Defined EncoderSelected bitrate : 1024 kBit/sQuality : HighAdd ID3 tag : NoCommand line compressor : C:\Program Files (x86)\Exact Audio Copy\Flac\flac.exeAdditional command line options : -8 -V -T "ARTIST=%artist%" -T "TITLE=%title%" -T "ALBUM=%albumtitle%" -T "DATE=%year%" -T "TRACKNUMBER=%tracknr%" -T "GENRE=%genre%" -T "PERFORMER=%albuminterpret%" -T "COMPOSER=%composer%" %haslyrics%--tag-from-file=LYRICS="%lyricsfile%"%haslyrics% -T "ALBUMARTIST=%albumartist%" -T "DISCNUMBER=%cdnumber%" -T "TOTALDISCS=%totalcds%" -T "TOTALTRACKS=%numtracks%" -T "COMMENT=%comment%" %source% -o %dest%
TOC of the extracted CD
Track | Start | Length | Start sector | End sector --------------------------------------------------------- 1 | 0:00.00 | 6:20.14 | 0 | 28513 2 | 6:20.14 | 3:37.19 | 28514 | 44807 3 | 9:57.33 | 4:34.03 | 44808 | 65360 4 | 14:31.36 | 9:41.35 | 65361 | 108970 5 | 24:12.71 | 5:34.62 | 108971 | 134082 6 | 29:47.58 | 5:04.18 | 134083 | 156900 7 | 34:52.01 | 1:44.45 | 156901 | 164745 8 | 36:36.46 | 5:11.53 | 164746 | 188123 9 | 41:48.24 | 4:35.35 | 188124 | 208783 10 | 46:23.59 | 5:26.53 | 208784 | 233286
Track 1
Filename C:\Users\Mariko\Music\01 - Concerto No. 4 in G Major BWV 1049- Allegro.wav
Pre-gap length 0:00:02.00
Peak level 53.9 % Extraction speed 2.6 X Track quality 100.0 % Test CRC 6682F440 Copy CRC 6682F440 Accurately ripped (confidence 34) [ABDADB6B] (AR v2) Copy OK
Track 2
Filename C:\Users\Mariko\Music\02 - Concerto No. 4 in G Major BWV 1049- Andante.wav
Peak level 43.3 % Extraction speed 2.8 X Track quality 100.0 % Test CRC 60325A54 Copy CRC 60325A54 Accurately ripped (confidence 34) [D5EE4CD2] (AR v2) Copy OK
Track 3
Filename C:\Users\Mariko\Music\03 - Concerto No. 4 in G Major BWV 1049- Presto.wav
Peak level 51.3 % Extraction speed 3.1 X Track quality 100.0 % Test CRC C7411C4A Copy CRC C7411C4A Accurately ripped (confidence 34) [5BD98B76] (AR v2) Copy OK
Track 4
Filename C:\Users\Mariko\Music\04 - Concerto No. 5 in D Major BWV 1050- Allegro.wav
Peak level 57.5 % Extraction speed 3.7 X Track quality 100.0 % Test CRC 6DC76173 Copy CRC 6DC76173 Accurately ripped (confidence 34) [E33F0986] (AR v2) Copy OK
Track 5
Filename C:\Users\Mariko\Music\05 - Concerto No. 5 in D Major BWV 1050- Affettuoso.wav
Peak level 48.6 % Extraction speed 3.9 X Track quality 100.0 % Test CRC C808638A Copy CRC C808638A Accurately ripped (confidence 34) [1910D502] (AR v2) Copy OK
Track 6
Filename C:\Users\Mariko\Music\06 - Concerto No. 5 in D Major BWV 1050- Allegro.wav
Peak level 49.5 % Extraction speed 4.2 X Track quality 100.0 % Test CRC E0615B22 Copy CRC E0615B22 Accurately ripped (confidence 34) [7E89AFBE] (AR v2) Copy OK
Track 7
Filename C:\Users\Mariko\Music\07 - Concerto No. 5 in D Major BWV 1050- Cadenza [first version- 1st movement- bars 147-180].wav
Peak level 57.4 % Extraction speed 2.3 X Track quality 99.8 % Test CRC 206F0D27 Copy CRC 206F0D27 Accurately ripped (confidence 32) [36CE8B42] (AR v2) Copy OK
Track 8
Filename C:\Users\Mariko\Music\08 - Concerto No. 6 in B-Flat Major BWV 1051- [...].wav
Peak level 42.9 % Extraction speed 4.4 X Track quality 100.0 % Test CRC E892E1F9 Copy CRC E892E1F9 Accurately ripped (confidence 34) [7D916945] (AR v2) Copy OK
Track 9
Filename C:\Users\Mariko\Music\09 - Concerto No. 6 in B-Flat Major BWV 1051- Adagio, mà non tanto.wav
Peak level 62.4 % Extraction speed 4.5 X Track quality 100.0 % Test CRC 9BE95232 Copy CRC 9BE95232 Accurately ripped (confidence 34) [F761F7A2] (AR v2) Copy OK
Track 10
Filename C:\Users\Mariko\Music\10 - Concerto No. 6 in B-Flat Major BWV 1051- Allegro.wav
Peak level 48.3 % Extraction speed 4.0 X Track quality 99.9 % Test CRC 4A275DCA Copy CRC 4A275DCA Accurately ripped (confidence 34) [A6223F5B] (AR v2) Copy OK
All tracks accurately ripped
No errors occurred
End of status report
---- CUETools DB Plugin V2.1.4
[CTDB TOCID: LMuVsFTJnGxKaYTSfI7gICagg48-] foundSubmit result: LMuVsFTJnGxKaYTSfI7gICagg48- has been confirmedTrack | CTDB Status 1 | (28/29) Accurately ripped 2 | (29/29) Accurately ripped 3 | (29/29) Accurately ripped 4 | (29/29) Accurately ripped 5 | (29/29) Accurately ripped 6 | (29/29) Accurately ripped 7 | (29/29) Accurately ripped 8 | (29/29) Accurately ripped 9 | (29/29) Accurately ripped 10 | (29/29) Accurately ripped
==== Log checksum 17AA97E7BF96211696FF72C0A65A1BAE63643F0E00D42BE83E4A5D87257FE554 ====

Содержание индексной карты (.CUE)

REM DATE 2005REM DISCID A00C260AREM COMMENT "ExactAudioCopy v1.0b4"PERFORMER "Concerto Italiano & Rinaldo Alessandrini"TITLE "Brandenburg Concertos"FILE "01. Allegro.wav" WAVE TRACK 01 AUDIO TITLE "Allegro" PERFORMER "Concerto Italiano & Rinaldo Alessandrini" INDEX 01 00:00:00FILE "02. Andante.wav" WAVE TRACK 02 AUDIO TITLE "Andante" PERFORMER "Concerto Italiano & Rinaldo Alessandrini" INDEX 01 00:00:00FILE "03. Presto.wav" WAVE TRACK 03 AUDIO TITLE "Presto" PERFORMER "Concerto Italiano & Rinaldo Alessandrini" INDEX 01 00:00:00FILE "04. Allegro.wav" WAVE TRACK 04 AUDIO TITLE "Allegro" PERFORMER "Concerto Italiano & Rinaldo Alessandrini" INDEX 01 00:00:00FILE "05. Affettuoso.wav" WAVE TRACK 05 AUDIO TITLE "Affettuoso" PERFORMER "Concerto Italiano & Rinaldo Alessandrini" INDEX 01 00:00:00FILE "06. Allegro.wav" WAVE TRACK 06 AUDIO TITLE "Allegro" PERFORMER "Concerto Italiano & Rinaldo Alessandrini" INDEX 01 00:00:00FILE "07. Cadenza.wav" WAVE TRACK 07 AUDIO TITLE "Cadenza" PERFORMER "Concerto Italiano & Rinaldo Alessandrini" INDEX 01 00:00:00FILE "08. [...].wav" WAVE TRACK 08 AUDIO TITLE "[...]" PERFORMER "Concerto Italiano & Rinaldo Alessandrini" INDEX 01 00:00:00FILE "09. Adagio, mà non tanto.wav" WAVE TRACK 09 AUDIO TITLE "Adagio, mà non tanto" PERFORMER "Concerto Italiano & Rinaldo Alessandrini" INDEX 01 00:00:00FILE "10. Allegro.wav" WAVE TRACK 10 AUDIO TITLE "Allegro" PERFORMER "Concerto Italiano & Rinaldo Alessandrini" INDEX 01 00:00:00
[teatrix.ru].t9640.torrent 
Торрент: Зарегистрирован [ 2015-10-23 17:11 ] · BA177FD0F838740E275C4C99DB738F178B38B5FA

Скачать .torrent

Скачать

13 KB

Статус: проверено
Скачан: 0 раз
Размер: 536 MB
terms.php



Быстрый ответ

Имя:

      
Для отправки сообщений необходимо включить JavaScript
Показать сообщения:    

Текущее время: 03-Дек 22:44

Часовой пояс: UTC + 3


Вы можете начинать темы
Вы можете отвечать на сообщения
Вы не можете редактировать свои сообщения
Вы не можете удалять свои сообщения
Вы не можете голосовать в опросах
Вы не можете прикреплять файлы к сообщениям
Вы можете скачивать файлы