Schumann/Шуман - Piano Concerto in A Minor (M. Pollini/М. Поллини - H. Karajan/Г.Караян) Beethoven/Бетховен Piano Concerto N. 4 Op. 58 (A. B. Michelangeli\\А. Б. Микеланджели - Z. Zdravkovic/З. Здравкович) 1974, 1973, FLAC (image+.cue)


Статистика раздачи [Обновить пиров]
Размер:  315 MB   |    Зарегистрирован:  1 год 1 месяц   |    Скачан:  0 раз

Полного источника не было: Никогда

 
   
 
 
 

[Цитировать]

Robert Schumann/Шуман - Piano Concerto in A Minor (Maurizio Pollini/М. Поллини - Herbert von Karajan/Г.Караян) Ludwig van Beethoven/Бетховен Piano Concerto N. 4 Op. 58 (Arturo Benedetti Michelangeli\А. Б. Микеланджели - Zivojin Zdravkovic/З. Здравкович) 1974, 1973, FLAC (image+.cue)
Жанр: Classical
Год издания диска: P 1992
Издатель (лейбл): Exclusive
Номер по каталогу: EX92T17
Дата записи: 1974, 1973
Аудиокодек: FLAC
Тип рипа: image+.cue
Битрейт аудио: lossless
Продолжительность: 1.05.00
Источник: скачано с
сайт-источник/ник/другое: pan.baidu
Наличие сканов в содержимом раздачи: да
Треклист:
Schumann: Piano Concerto in A Minor
1. Allegro affettuoso
2. Intermezzo. Allegro vivace
Beethoven: Piano Concerto N. 4 Op. 58
3. Allegro moderato
4. Andante con moto
5. Rondo: Vivace
Исполнители:
Maurizio Pollini - piano
Herbert von Karajan, Vienna Philharmonic Orchestra
Salzburg, 15 Aug. 1974 (Schumann)
Arturo Benedetti Michelangeli -
Zivojin Zdravkovic, Belgrade Philharmonic Orchestra
Belgrade, 7 Oct. 1973 (Beethoven)

Лог создания рипа

Exact Audio Copy V1.0 beta 3 from 29. August 2011
EAC 抓取日志文件从22. 二月 2013, 17:26
Schumann & Beethoven : Piano Concertos
使用驱动器 :PIONEER DVD-RW DVR-118L Adapter: 1 ID: 0
读取模式 : 可靠Secure使用精确流 : 是清空音频缓存 : 是使用 C2 指示器 : 否
读取偏移校正: : 6读取 Lead-In 和 Lead-Out : 否用静音填充抓取中丢失偏移的采样 : 是去除首尾静音块 : 否 在CRC 计算中使用了空样本 : 是已用接口 : Win NT 及 2000 本地 Win32 接口
所用输出模式: : 内部 WAV 函数样本格式 : 44.100 Hz; 16 Bit; 立体声
已抓取 CD 的 TOC
音轨 | 起始 | 长度 | 起始扇区 | 结束扇区 -------------------------------------------- 1 | 0:00.33 | 14:30.65 | 33 | 65347 2 | 14:31.23 | 15:30.62 | 65348 | 135159 3 | 30:02.10 | 19:04.45 | 135160 | 221004 4 | 49:06.55 | 5:35.60 | 221005 | 246189 5 | 54:42.40 | 10:17.68 | 246190 | 292532
范围状态及错误
已选择范围
文件名 C:\Users\Administrator\Desktop\Maurizio Pollini - Schumann & Beethoven - Piano Concertos.wav
峰值电平 83.0 % 抓取速度 2.0 X 范围质量 100.0 % 复制 CRC F9BF8490 复制成功
没有错误发生
AccurateRip 摘要
音轨 1 精确地校准抓取 1) [21F7E873] (AR v1)音轨 2 精确地校准抓取 1) [DFE04411] (AR v1)音轨 3 精确地校准抓取 1) [AC01D0DE] (AR v1)音轨 4 精确地校准抓取 1) [35C9308E] (AR v1)音轨 5 精确地校准抓取 1) [5A8E3152] (AR v1)
所有音轨精确校准抓取
状态报告结尾
---- CUETools DB Plugin V2.1.3
[CTDB TOCID: .ylq49MFqe8jY1e7Ha9qUuY1nkw-] disk not present in database, Submit result: discs with pregaps not supported in this protocol version
[teatrix.ru].t9641.torrent 
Торрент: Зарегистрирован [ 2015-10-23 17:11 ] · F6665CA2A9CB6C468F29E58A50D1C3D7B93E9C52

Скачать .torrent

Скачать

13 KB

Статус: проверено
Скачан: 0 раз
Размер: 315 MB
terms.php



Быстрый ответ

Имя:

      
Для отправки сообщений необходимо включить JavaScript
Показать сообщения:    

Текущее время: 03-Дек 16:46

Часовой пояс: UTC + 3


Вы можете начинать темы
Вы можете отвечать на сообщения
Вы не можете редактировать свои сообщения
Вы не можете удалять свои сообщения
Вы не можете голосовать в опросах
Вы не можете прикреплять файлы к сообщениям
Вы можете скачивать файлы