(Classical) Ludwig van Beethoven - Piano Concertos Nos.1-5, Triple Concerto, Piano Concerto after Violin Concerto, Choral Fantasia, Rondo [Борис Березовский/Thomas Dausgaard] - 2000-2015, FLAC (image+.cue) lossless


Статистика раздачи [Обновить пиров]
Размер:  995 MB   |    Зарегистрирован:  1 год 1 месяц   |    Скачан:  1 раз

Полного источника не было: 1 месяц 3 дня

 
   
 
 
 

[Цитировать]

Ludwig van Beethoven - Piano Concertos
Борис Березовский, piano
Urban Svensson, violin
Mats Rondin, cello
DR Vocal Ensemble and Choir

Swedish Chamber Orchestra Örebro
Thomas Dausgaard
-

Piano Concertos Nos.1&2, Rondo

Жанр: Classical
Страна-производитель диска: Austria
Год издания диска: 2000
Издатель (лейбл): Simax Classics
Номер по каталогу: PSC 1181
Дата записи: 24-30.V.1999
Аудиокодек: FLAC
Тип рипа: image+.cue
Битрейт аудио: lossless
Продолжительность: 1:08'19"
Источник: собственный рип
Наличие сканов в содержимом раздачи: да
Треклист:
Piano Concerto No.1, Op.15
1. I. Allegro con brio
2. II. Largo
3. III. Rondo. Allegro
Piano Concerto No.2, Op.19
4. I. Allegro con brio
5. II. Adagio
6. III. Rondo. Molto Allegro
7. Rondo, WoO 6

Лог создания рипа

Exact Audio Copy V1.0 beta 1 from 15. November 2010
EAC extraction logfile from 9. May 2015, 14:38
Ludwig van Bethoven / Piano Concertos 1&2, Rondo
Used drive : Optiarc DVD RW AD-7203A Adapter: 4 ID: 1
Read mode : SecureUtilize accurate stream : YesDefeat audio cache : YesMake use of C2 pointers : No
Read offset correction : 48Overread into Lead-In and Lead-Out : NoFill up missing offset samples with silence : YesDelete leading and trailing silent blocks : NoNull samples used in CRC calculations : YesUsed interface : Native Win32 interface for Win NT & 2000
Used output format : User Defined EncoderSelected bitrate : 128 kBit/sQuality : HighAdd ID3 tag : NoCommand line compressor : C:\Program Files\FLAC\flac.exeAdditional command line options : -T "COMMENT=Ripped by GFox" -8 -V %s
TOC of the extracted CD
Track | Start | Length | Start sector | End sector --------------------------------------------------------- 1 | 0:00.00 | 13:29.00 | 0 | 60674 2 | 13:29.00 | 9:37.07 | 60675 | 103956 3 | 23:06.07 | 8:39.25 | 103957 | 142906 4 | 31:45.32 | 13:03.08 | 142907 | 201639 5 | 44:48.40 | 8:48.45 | 201640 | 241284 6 | 53:37.10 | 5:49.62 | 241285 | 267521 7 | 59:26.72 | 8:52.40 | 267522 | 307461
Range status and errors
Selected range
Filename D:\EAC\Ludwig van Bethoven - Piano Concertos 1&2, Rondo.wav
Peak level 89.1 % Extraction speed 0.4 X Range quality 100.0 % Test CRC AF882007 Copy CRC AF882007 Copy OK
No errors occurred
AccurateRip summary
Track 1 accurately ripped (confidence 3) [76B647D3]Track 2 accurately ripped (confidence 3) [CF750B8C]Track 3 accurately ripped (confidence 3) [0CA6D0E4]Track 4 accurately ripped (confidence 3) [A999FCE8]Track 5 accurately ripped (confidence 2) [14F45C2A]Track 6 accurately ripped (confidence 2) [6752C557]Track 7 accurately ripped (confidence 2) [4CD3CAC2]
All tracks accurately ripped
End of status report
==== Log checksum 63701627BC23AA5643730FE630A6197D2C1B42477E1EEC63EA29C64275FA9278 ====

Piano Concerto No.3 & Triple Concerto

Жанр: Classical
Страна-производитель диска: Austria
Год издания диска: 2002
Издатель (лейбл): Simax Classics
Номер по каталогу: PSC 1183
Дата записи: 27-31.III.2000
Аудиокодек: FLAC
Тип рипа: image+.cue
Битрейт аудио: lossless
Продолжительность: 1:09'06"
Источник: собственный рип
Наличие сканов в содержимом раздачи: да
Треклист:
Piano Concerto No.3, Op.37
1. I. Allegro con brio
2. II. Largo
3. III. Rondo Allegro
Triple Concerto, Op.56
4. I. Allegro
5. II. Largo
6. III. Rondo alla Polacca

Лог создания рипа

Exact Audio Copy V1.0 beta 1 from 15. November 2010
EAC extraction logfile from 9. May 2015, 15:18
Ludwig van Beethoven / Piano Concerto No.3 & Triple Concerto
Used drive : Optiarc DVD RW AD-7203A Adapter: 4 ID: 1
Read mode : SecureUtilize accurate stream : YesDefeat audio cache : YesMake use of C2 pointers : No
Read offset correction : 48Overread into Lead-In and Lead-Out : NoFill up missing offset samples with silence : YesDelete leading and trailing silent blocks : NoNull samples used in CRC calculations : YesUsed interface : Native Win32 interface for Win NT & 2000
Used output format : User Defined EncoderSelected bitrate : 128 kBit/sQuality : HighAdd ID3 tag : NoCommand line compressor : C:\Program Files\FLAC\flac.exeAdditional command line options : -T "COMMENT=Ripped by GFox" -8 -V %s
TOC of the extracted CD
Track | Start | Length | Start sector | End sector --------------------------------------------------------- 1 | 0:00.00 | 15:52.20 | 0 | 71419 2 | 15:52.20 | 9:57.00 | 71420 | 116194 3 | 25:49.20 | 9:21.40 | 116195 | 158309 4 | 35:10.60 | 16:40.10 | 158310 | 233319 5 | 51:50.70 | 4:57.65 | 233320 | 255659 6 | 56:48.60 | 12:17.67 | 255660 | 311001
Range status and errors
Selected range
Filename D:\EAC\Ludwig van Beethoven - Piano Concerto No.3 & Triple Concerto.wav
Peak level 96.7 % Extraction speed 0.5 X Range quality 100.0 % Test CRC 55FE5A77 Copy CRC 55FE5A77 Copy OK
No errors occurred
AccurateRip summary
Track 1 accurately ripped (confidence 3) [74A83253]Track 2 accurately ripped (confidence 3) [D73A2E89]Track 3 accurately ripped (confidence 4) [4AE22592]Track 4 accurately ripped (confidence 4) [8B440492]Track 5 accurately ripped (confidence 4) [4090143A]Track 6 accurately ripped (confidence 3) [98B8824B]
All tracks accurately ripped
End of status report
==== Log checksum ADCC5A67E28C2B3BC05ED94F60FFDF1D3EAEC4E39E4D8473AF4C4B00B3644976 ====

Piano Concerto No.4 & Piano Concerto after Violin Concerto

Жанр: Classical
Страна-производитель диска: Austria
Год издания диска: 2005
Издатель (лейбл): Simax Classics
Номер по каталогу: PSC 1280
Дата записи: 25-26&28-31.V.&1.VI.2001
Аудиокодек: FLAC
Тип рипа: image+.cue
Битрейт аудио: lossless
Продолжительность: 1:12'11"
Источник: собственный рип
Наличие сканов в содержимом раздачи: да
Треклист:
Piano Concerto No.4, Op.58
1. I. Allegro moderato
2. II. Andante con moto
3. III. Rondo. Vivace
Violin Concerto, Op.61a
4. I. Allegro ma non troppo
5. II. Larghetto
6. III. Rondo (Allegro)

Лог создания рипа

Exact Audio Copy V1.0 beta 1 from 15. November 2010
EAC extraction logfile from 9. May 2015, 16:54
Ludwig van Beethoven / Piano Concerto No.4 & Violin Concerto
Used drive : Optiarc DVD RW AD-7203A Adapter: 4 ID: 1
Read mode : SecureUtilize accurate stream : YesDefeat audio cache : YesMake use of C2 pointers : No
Read offset correction : 48Overread into Lead-In and Lead-Out : NoFill up missing offset samples with silence : YesDelete leading and trailing silent blocks : NoNull samples used in CRC calculations : YesUsed interface : Native Win32 interface for Win NT & 2000
Used output format : User Defined EncoderSelected bitrate : 128 kBit/sQuality : HighAdd ID3 tag : NoCommand line compressor : C:\Program Files\FLAC\flac.exeAdditional command line options : -T "COMMENT=Ripped by GFox" -8 -V %s
TOC of the extracted CD
Track | Start | Length | Start sector | End sector --------------------------------------------------------- 1 | 0:00.00 | 18:11.03 | 0 | 81827 2 | 18:11.03 | 4:34.57 | 81828 | 102434 3 | 22:45.60 | 9:54.49 | 102435 | 147033 4 | 32:40.34 | 20:49.68 | 147034 | 240776 5 | 53:30.27 | 9:33.68 | 240777 | 283819 6 | 63:04.20 | 9:07.38 | 283820 | 324882
Range status and errors
Selected range
Filename D:\EAC\Ludwig van Beethoven - Piano Concerto No.4 & Violin Concerto.wav
Peak level 100.0 % Extraction speed 0.4 X Range quality 99.9 % Test CRC 86D03AAE Copy CRC 86D03AAE Copy OK
No errors occurred
AccurateRip summary
Track 1 accurately ripped (confidence 4) [19158DFD]Track 2 accurately ripped (confidence 4) [9CE87989]Track 3 accurately ripped (confidence 4) [C5958D94]Track 4 accurately ripped (confidence 4) [D69B9A1B]Track 5 accurately ripped (confidence 4) [6B98E8C8]Track 6 accurately ripped (confidence 4) [1F7D5885]
All tracks accurately ripped
End of status report
==== Log checksum C94E36C33FCB6B02FF4A4DC81713A6247A7621D4D4DBA56306328514D6C5F19E ====

Piano Concerto No.5 'Emperor' & Choral Fantasia

Жанр: Classical
Страна-производитель диска: Austria
Год издания диска: 2015
Издатель (лейбл): Simax Classics
Номер по каталогу: PSC 1285
Дата записи: 28.V-1.VI.2001 & 13.I.2005
Аудиокодек: FLAC
Тип рипа: image+.cue
Битрейт аудио: lossless
Продолжительность: 53'59"
Источник: собственный рип
Наличие сканов в содержимом раздачи: да
Треклист:
Piano Concerto No.5 'Emperor', Op.73
1. I. Allegro
2. II. Adagio un poco mosso
3. III. Rondo
4. Fantasia for piano, soloists, chorus and orchestra, Op.80

Лог создания рипа

Exact Audio Copy V1.0 beta 4 from 7. December 2014
EAC extraction logfile from 28. July 2015, 21:08
Ludwig van Beethoven / Piano Concerto No.5 & Choral Fantasia
Used drive : TSSTcorpDVDWBD TS-LB23A Adapter: 1 ID: 0
Read mode : SecureUtilize accurate stream : YesDefeat audio cache : YesMake use of C2 pointers : No
Read offset correction : 6Overread into Lead-In and Lead-Out : NoFill up missing offset samples with silence : YesDelete leading and trailing silent blocks : NoNull samples used in CRC calculations : YesUsed interface : Native Win32 interface for Win NT & 2000
Used output format : User Defined EncoderSelected bitrate : 128 kBit/sQuality : HighAdd ID3 tag : YesCommand line compressor : C:\Program Files (x86)\Exact Audio Copy\Flac\flac.exeAdditional command line options : -T "COMMENT=Ripped by GFox" -V -8 %source%
TOC of the extracted CD
Track | Start | Length | Start sector | End sector --------------------------------------------------------- 1 | 0:00.00 | 18:51.34 | 0 | 84858 2 | 18:51.34 | 7:09.46 | 84859 | 117079 3 | 26:01.05 | 9:41.06 | 117080 | 160660 4 | 35:42.11 | 18:17.10 | 160661 | 242945
Range status and errors
Selected range
Filename D:\Downloads\Ludwig van Beethoven - Piano Concerto No.5 & Choral Fantasia.wav
Peak level 87.0 % Extraction speed 1.6 X Range quality 100.0 % Test CRC BC8D7BF7 Copy CRC BC8D7BF7 Copy OK
No errors occurred
AccurateRip summary
Track 1 not present in databaseTrack 2 not present in databaseTrack 3 not present in databaseTrack 4 not present in database
None of the tracks are present in the AccurateRip database
End of status report
==== Log checksum 9115F548A155547CF2EB8297A39E80D5A9310D62CE49CA50D435DA4F0D95B79D ====
-
[teatrix.ru].t9642.torrent 
Торрент: Зарегистрирован [ 2015-10-23 17:11 ] · 7288C0396FF566446A79E5E7EC96B282974594BE

Скачать .torrent

Скачать

22 KB

Статус: проверено
Скачан: 1 раз
Размер: 995 MB
terms.php



Быстрый ответ

Имя:

      
Для отправки сообщений необходимо включить JavaScript
Показать сообщения:    

Текущее время: 06-Дек 15:15

Часовой пояс: UTC + 3


Вы можете начинать темы
Вы можете отвечать на сообщения
Вы не можете редактировать свои сообщения
Вы не можете удалять свои сообщения
Вы не можете голосовать в опросах
Вы не можете прикреплять файлы к сообщениям
Вы можете скачивать файлы