(Classical / Orchestral) Johann Sebastian Bach - Brandenburgische Konzerte (Brandenburg Concertos) / Йоханн (Иоганн) Себастьян Бах - Бранденбургские концерты (Brandenburg Consort, Roy Goodman, 1991) - 1996 [2 CD], FLAC (tracks+.cue) lossless


Статистика раздачи [Обновить пиров]
Размер:  473 MB   |    Зарегистрирован:  1 год 2 месяца   |    Скачан:  0 раз

Полного источника не было: Никогда

 
   
 
 
 

[Цитировать]

Johann Sebastian Bach | Йоханн Себастьян Бах
(1685–1750)



Brandenburgische Konzerte
Бранденбургские концерты


Roy Goodman violinJudith Tarling viola
Peter Holtslag recorderRachel Brown fluteKatharina Arfken oboe
Raul Diaz & Gavin Edwards hornsStephen Keavy trumpet
Alastair Ross harpsichord
Brandenburg Consort
Roy Goodman conductor


Жанр: Classical / Orchestral
Дата и место записи: All Saints' Church, East Finchley, London, UK, 1991
Формат записи: DDD, Stereo
Год издания диска: 1996
Издатель (лейбл): Hyperion
Номер по каталогу: CDD22001
Аудиокодек: FLAC
Тип рипа: tracks+.cue
Битрейт аудио: lossless
Продолжительность: 1:32:34
Наличие сканов в содержимом раздачи: да
Источник: What.CD
Релизёр: brancosp


-
Tracklist / ТреклистCD 1: Konzerte Nrn. 1 • 2 • 3
Brandenburgisches Konzert Nr. 1 F-dur, BWV 1046 - 20:09
I. [ohne Satzbezeichnung] - 3:48
  • II. Adagio - 3:31
  • III. Allegro - 4:04
  • IV. Menuetto. — Polacca - 8:45
    Recorded: All Saints' Church, East Finchley, London, UK, 11–13 October 1991Brandenburgisches Konzert Nr. 2 F-dur, BWV 1047 - 11:25
    I. [ohne Satzbezeichnung] - 5:08
  • II. Andante - 3:30
  • III. Allegro assai - 2:48
    Recorded: All Saints' Church, East Finchley, London, UK, 11–13 October 1991Brandenburgisches Konzert Nr. 3 G-dur, BWV 1048 - 12:04
    I. [ohne Satzbezeichnung] - 5:26
  • II. Adagio - 1:55
  • III. Allegro - 4:43
    Recorded: All Saints' Church, East Finchley, London, UK, 16–18 July 1991CD 2: Konzerte Nrn. 4 • 5 • 6
    Brandenburgisches Konzert Nr. 4 G-dur, BWV 1049 - 13:47
    I. Allegro - 6:30
  • II. Andante - 2:59
  • III. Presto - 4:18
    Recorded: All Saints' Church, East Finchley, London, UK, 16–18 July 1991Brandenburgisches Konzert Nr. 5 D-dur, BWV 1050 - 20:15
    I. Allegro - 9:57
  • II. Affettuoso - 5:18
  • III. Allegro - 4:59
    Recorded: All Saints' Church, East Finchley, London, UK, 16–18 July 1991Brandenburgisches Konzert Nr. 6 B-dur, BWV 1051 - 14:54
    I. [ohne Satzbezeichnung] - 5:22
  • II. Adagio ma non tanto - 4:28
  • III. Allegro - 5:04
    Recorded: All Saints' Church, East Finchley, London, UK, 11–13 October 1991
    -

    XLD logs / Отчёты XLDCD 1: Konzerte Nrn. 1 • 2 • 3

    X Lossless Decoder version 20131102 (145.0)
    XLD extraction logfile from 2014-03-07 14:13:05 +1100
    The Brandenburg Consort, Roy Goodman (conductor) / Bach - The Brandenburg Concertos (1991) [FLAC] {Brandenburg Consort} CD1
    Used drive : MATSHITA DVD-R UJ-875 (revision DB09)Media type : Pressed CD
    Ripper mode : XLD Secure RipperDisable audio cache : OK for the drive with a cache less than 1375KiBMake use of C2 pointers : NORead offset correction : 102Max retry count : 100Gap status : Analyzed, Appended (except HTOA)
    TOC of the extracted CD Track | Start | Length | Start sector | End sector --------------------------------------------------------- 1 | 00:00:00 | 03:48:32 | 0 | 17131 2 | 03:48:32 | 03:31:00 | 17132 | 32956 3 | 07:19:32 | 04:04:05 | 32957 | 51261 4 | 11:23:37 | 08:45:35 | 51262 | 90671 5 | 20:08:72 | 05:07:45 | 90672 | 113741 6 | 25:16:42 | 03:29:53 | 113742 | 129469 7 | 28:46:20 | 02:48:05 | 129470 | 142074 8 | 31:34:25 | 05:26:12 | 142075 | 166536 9 | 37:00:37 | 01:54:45 | 166537 | 175131 10 | 38:55:07 | 04:43:21 | 175132 | 196377
    List of alternate offset correction values # | Absolute | Relative | Confidence ------------------------------------------ 1 | 66 | -36 | 4
    AccurateRip Summary (DiscID: 001104dd-008837dd-770a3a0a) Track 01 : OK (v2, confidence 3/7) Track 02 : OK (v2, confidence 3/7) Track 03 : OK (v2, confidence 3/7) Track 04 : OK (v2, confidence 3/7) Track 05 : OK (v2, confidence 3/7) Track 06 : OK (v2, confidence 3/7) Track 07 : OK (v2, confidence 3/7) Track 08 : OK (v2, confidence 3/7) Track 09 : OK (v2, confidence 3/7) Track 10 : OK (v2, confidence 3/7) ->All tracks accurately ripped.
    All Tracks Album gain : 1.00 dB Peak : 0.973785 Statistics Read error : 0 Jitter error (maybe fixed) : 0 Retry sector count : 0 Damaged sector count : 0
    Track 01 Filename : /Volumes/RIPs/Bach - The Brandenburg Concertos (1991) [FLAC] {Brandenburg Consort}/CD1/01 - No 1 in F Major, BWV 1046 - I. Allegro.flac Pre-gap length : 00:02:00
    Track gain : 0.87 dB Peak : 0.759064 CRC32 hash (test run) : 510166C5 CRC32 hash : 510166C5 CRC32 hash (skip zero) : 6539FD2A AccurateRip v1 signature : 97B32743 AccurateRip v2 signature : 7721624C ->Accurately ripped (v2, confidence 3/7) Statistics Read error : 0 Jitter error (maybe fixed) : 0 Retry sector count : 0 Damaged sector count : 0
    Track 02 Filename : /Volumes/RIPs/Bach - The Brandenburg Concertos (1991) [FLAC] {Brandenburg Consort}/CD1/02 - No 1 in F Major, BWV 1046 - II. Adagio.flac
    Track gain : 4.60 dB Peak : 0.411011 CRC32 hash (test run) : 75169927 CRC32 hash : 75169927 CRC32 hash (skip zero) : 9BABF1D1 AccurateRip v1 signature : C9D6A58B AccurateRip v2 signature : 899B34C5 ->Accurately ripped (v2, confidence 3/7) Statistics Read error : 0 Jitter error (maybe fixed) : 0 Retry sector count : 0 Damaged sector count : 0
    Track 03 Filename : /Volumes/RIPs/Bach - The Brandenburg Concertos (1991) [FLAC] {Brandenburg Consort}/CD1/03 - No 1 in F Major, BWV 1046 - III. Allegro.flac
    Track gain : 2.59 dB Peak : 0.725891 CRC32 hash (test run) : E033A854 CRC32 hash : E033A854 CRC32 hash (skip zero) : 84258E34 AccurateRip v1 signature : C5369E2A AccurateRip v2 signature : 6B07183E ->Accurately ripped (v2, confidence 3/7) Statistics Read error : 0 Jitter error (maybe fixed) : 0 Retry sector count : 0 Damaged sector count : 0
    Track 04 Filename : /Volumes/RIPs/Bach - The Brandenburg Concertos (1991) [FLAC] {Brandenburg Consort}/CD1/04 - No 1 in F Major, BWV 1046 - IV. Menuetto.flac
    Track gain : -0.61 dB Peak : 0.749268 CRC32 hash (test run) : FA8ABBDD CRC32 hash : FA8ABBDD CRC32 hash (skip zero) : 3B3A136C AccurateRip v1 signature : 052FEDA2 AccurateRip v2 signature : 41E7F478 ->Accurately ripped (v2, confidence 3/7) Statistics Read error : 0 Jitter error (maybe fixed) : 0 Retry sector count : 0 Damaged sector count : 0
    Track 05 Filename : /Volumes/RIPs/Bach - The Brandenburg Concertos (1991) [FLAC] {Brandenburg Consort}/CD1/05 - No 2 in F Major, BWV1047 - I. Allegro.flac
    Track gain : 4.36 dB Peak : 0.539581 CRC32 hash (test run) : CA20721D CRC32 hash : CA20721D CRC32 hash (skip zero) : A6334E30 AccurateRip v1 signature : 4734805E AccurateRip v2 signature : AF68DDC2 ->Accurately ripped (v2, confidence 3/7) Statistics Read error : 0 Jitter error (maybe fixed) : 0 Retry sector count : 0 Damaged sector count : 0
    Track 06 Filename : /Volumes/RIPs/Bach - The Brandenburg Concertos (1991) [FLAC] {Brandenburg Consort}/CD1/06 - No 2 in F Major, BWV1047 - II. Andante.flac
    Track gain : 7.18 dB Peak : 0.339783 CRC32 hash (test run) : 54950CA7 CRC32 hash : 54950CA7 CRC32 hash (skip zero) : 48AE79E1 AccurateRip v1 signature : BBB11D89 AccurateRip v2 signature : 77F1657F ->Accurately ripped (v2, confidence 3/7) Statistics Read error : 0 Jitter error (maybe fixed) : 0 Retry sector count : 0 Damaged sector count : 0
    Track 07 Filename : /Volumes/RIPs/Bach - The Brandenburg Concertos (1991) [FLAC] {Brandenburg Consort}/CD1/07 - No 2 in F Major, BWV1047 - III. Allegro assai.flac
    Track gain : 4.46 dB Peak : 0.471954 CRC32 hash (test run) : 47197929 CRC32 hash : 47197929 CRC32 hash (skip zero) : 5900829A AccurateRip v1 signature : D1560E7A AccurateRip v2 signature : 4928241D ->Accurately ripped (v2, confidence 3/7) Statistics Read error : 0 Jitter error (maybe fixed) : 0 Retry sector count : 0 Damaged sector count : 0
    Track 08 Filename : /Volumes/RIPs/Bach - The Brandenburg Concertos (1991) [FLAC] {Brandenburg Consort}/CD1/08 - No 3 in G Major, BWV1048 - I. Allegro.flac
    Track gain : -0.53 dB Peak : 0.899567 CRC32 hash (test run) : 7A0B2C19 CRC32 hash : 7A0B2C19 CRC32 hash (skip zero) : A6833D62 AccurateRip v1 signature : B6802005 AccurateRip v2 signature : 8C375D70 ->Accurately ripped (v2, confidence 3/7) Statistics Read error : 0 Jitter error (maybe fixed) : 0 Retry sector count : 0 Damaged sector count : 0
    Track 09 Filename : /Volumes/RIPs/Bach - The Brandenburg Concertos (1991) [FLAC] {Brandenburg Consort}/CD1/09 - No 3 in G Major, BWV1048 - II. Adagio.flac
    Track gain : 3.80 dB Peak : 0.344910 CRC32 hash (test run) : E4E40AD8 CRC32 hash : E4E40AD8 CRC32 hash (skip zero) : BCBEE7CF AccurateRip v1 signature : 1DD5D8CC AccurateRip v2 signature : DD2469A5 ->Accurately ripped (v2, confidence 3/7) Statistics Read error : 0 Jitter error (maybe fixed) : 0 Retry sector count : 0 Damaged sector count : 0
    Track 10 Filename : /Volumes/RIPs/Bach - The Brandenburg Concertos (1991) [FLAC] {Brandenburg Consort}/CD1/10 - No 3 in G Major, BWV1048 - III. Allegro.flac
    Track gain : -0.24 dB Peak : 0.973785 CRC32 hash (test run) : 8E439288 CRC32 hash : 8E439288 CRC32 hash (skip zero) : AE037C15 AccurateRip v1 signature : 62F90B97 AccurateRip v2 signature : 8BC45603 ->Accurately ripped (v2, confidence 3/7) Statistics Read error : 0 Jitter error (maybe fixed) : 0 Retry sector count : 0 Damaged sector count : 0
    No errors occurred
    End of status report
    -----BEGIN XLD SIGNATURE-----E3xUJpOTNciPfVzOSC9f3_52LiAcjkuqL5_eEpv7ZJ03DLPpi2gd5pHUMKM0w0eDvzsUeYwwnwrIK2M1b1zOSH9.8q5NlM1jl._dTb0-----END XLD SIGNATURE-----

    CD 2: Konzerte Nrn. 4 • 5 • 6

    X Lossless Decoder version 20131102 (145.0)
    XLD extraction logfile from 2014-03-07 14:45:08 +1100
    The Brandenburg Consort, Roy Goodman (conductor) / Bach - The Brandenburg Concertos (1991) [FLAC] {Brandenburg Consort} CD2
    Used drive : MATSHITA DVD-R UJ-875 (revision DB09)Media type : Pressed CD
    Ripper mode : XLD Secure RipperDisable audio cache : OK for the drive with a cache less than 1375KiBMake use of C2 pointers : NORead offset correction : 102Max retry count : 100Gap status : Analyzed, Appended (except HTOA)
    TOC of the extracted CD Track | Start | Length | Start sector | End sector --------------------------------------------------------- 1 | 00:00:00 | 06:30:25 | 0 | 29274 2 | 06:30:25 | 02:58:42 | 29275 | 42666 3 | 09:28:67 | 04:17:60 | 42667 | 62001 4 | 13:46:52 | 09:57:05 | 62002 | 106781 5 | 23:43:57 | 05:18:28 | 106782 | 130659 6 | 29:02:10 | 04:59:37 | 130660 | 153121 7 | 34:01:47 | 05:22:33 | 153122 | 177304 8 | 39:24:05 | 04:27:40 | 177305 | 197369 9 | 43:51:45 | 05:03:68 | 197370 | 220162
    List of alternate offset correction values # | Absolute | Relative | Confidence ------------------------------------------ 1 | 66 | -36 | 4
    AccurateRip Summary (DiscID: 00111472-007d700c-720b7709) Track 01 : OK (v2, confidence 3/7) Track 02 : OK (v2, confidence 3/7) Track 03 : OK (v2, confidence 3/7) Track 04 : OK (v2, confidence 3/7) Track 05 : OK (v2, confidence 3/7) Track 06 : OK (v2, confidence 3/7) Track 07 : OK (v2, confidence 3/7) Track 08 : OK (v2, confidence 3/7) Track 09 : OK (v2, confidence 3/7) ->All tracks accurately ripped.
    All Tracks Album gain : 0.81 dB Peak : 0.988892 Statistics Read error : 0 Jitter error (maybe fixed) : 0 Retry sector count : 0 Damaged sector count : 0
    Track 01 Filename : /Volumes/RIPs/Bach - The Brandenburg Concertos (1991) [FLAC] {Brandenburg Consort}/CD2/01 - No. 4 in G major, BWV 1049. I. Allegro.flac Pre-gap length : 00:02:00
    Track gain : -0.06 dB Peak : 0.708282 CRC32 hash (test run) : 76E2DCDB CRC32 hash : 76E2DCDB CRC32 hash (skip zero) : 62ABC6B0 AccurateRip v1 signature : 806084D9 AccurateRip v2 signature : A9D57CB8 ->Accurately ripped (v2, confidence 3/7) Statistics Read error : 0 Jitter error (maybe fixed) : 0 Retry sector count : 0 Damaged sector count : 0
    Track 02 Filename : /Volumes/RIPs/Bach - The Brandenburg Concertos (1991) [FLAC] {Brandenburg Consort}/CD2/02 - No. 4 in G major, BWV 1049. II. Andante.flac
    Track gain : 3.80 dB Peak : 0.663818 CRC32 hash (test run) : 858B9459 CRC32 hash : 858B9459 CRC32 hash (skip zero) : 47D651F1 AccurateRip v1 signature : 2FE1ADB0 AccurateRip v2 signature : 2083C9AD ->Accurately ripped (v2, confidence 3/7) Statistics Read error : 0 Jitter error (maybe fixed) : 0 Retry sector count : 0 Damaged sector count : 0
    Track 03 Filename : /Volumes/RIPs/Bach - The Brandenburg Concertos (1991) [FLAC] {Brandenburg Consort}/CD2/03 - No. 4 in G major, BWV 1049. III. Presto.flac
    Track gain : -0.53 dB Peak : 0.988892 CRC32 hash (test run) : A899FAEB CRC32 hash : A899FAEB CRC32 hash (skip zero) : 6A030005 AccurateRip v1 signature : 9512DE0E AccurateRip v2 signature : 17FE4E1D ->Accurately ripped (v2, confidence 3/7) Statistics Read error : 0 Jitter error (maybe fixed) : 0 Retry sector count : 0 Damaged sector count : 0
    Track 04 Filename : /Volumes/RIPs/Bach - The Brandenburg Concertos (1991) [FLAC] {Brandenburg Consort}/CD2/04 - No. 5 in D major, BWV 1050. I. Allegro.flac
    Track gain : 1.42 dB Peak : 0.715637 CRC32 hash (test run) : 97654FF0 CRC32 hash : 97654FF0 CRC32 hash (skip zero) : 0C581409 AccurateRip v1 signature : 48DBF025 AccurateRip v2 signature : BDA1971B ->Accurately ripped (v2, confidence 3/7) Statistics Read error : 0 Jitter error (maybe fixed) : 0 Retry sector count : 0 Damaged sector count : 0
    Track 05 Filename : /Volumes/RIPs/Bach - The Brandenburg Concertos (1991) [FLAC] {Brandenburg Consort}/CD2/05 - No. 5 in D major, BWV 1050. II. Affettuoso.flac
    Track gain : 5.05 dB Peak : 0.383301 CRC32 hash (test run) : 4DEE3501 CRC32 hash : 4DEE3501 CRC32 hash (skip zero) : 8677CA2C AccurateRip v1 signature : 8817548B AccurateRip v2 signature : 9C0C4A8D ->Accurately ripped (v2, confidence 3/7) Statistics Read error : 0 Jitter error (maybe fixed) : 0 Retry sector count : 0 Damaged sector count : 0
    Track 06 Filename : /Volumes/RIPs/Bach - The Brandenburg Concertos (1991) [FLAC] {Brandenburg Consort}/CD2/06 - No. 5 in D major, BWV 1050. III. Allegro.flac
    Track gain : 0.53 dB Peak : 0.664673 CRC32 hash (test run) : 59BA89CB CRC32 hash : 59BA89CB CRC32 hash (skip zero) : 47D3EA2C AccurateRip v1 signature : 6D705018 AccurateRip v2 signature : CB5A73C7 ->Accurately ripped (v2, confidence 3/7) Statistics Read error : 0 Jitter error (maybe fixed) : 0 Retry sector count : 0 Damaged sector count : 0
    Track 07 Filename : /Volumes/RIPs/Bach - The Brandenburg Concertos (1991) [FLAC] {Brandenburg Consort}/CD2/07 - No. 6 in B-flat major, BWV 1051. I. Allegro.flac
    Track gain : 1.84 dB Peak : 0.657013 CRC32 hash (test run) : B7113DFA CRC32 hash : B7113DFA CRC32 hash (skip zero) : C0540B46 AccurateRip v1 signature : 2B7B6EEE AccurateRip v2 signature : 5EC4EAC4 ->Accurately ripped (v2, confidence 3/7) Statistics Read error : 0 Jitter error (maybe fixed) : 0 Retry sector count : 0 Damaged sector count : 0
    Track 08 Filename : /Volumes/RIPs/Bach - The Brandenburg Concertos (1991) [FLAC] {Brandenburg Consort}/CD2/08 - No. 6 in B-flat major, BWV 1051. II. Adagio ma non tanto.flac
    Track gain : 3.76 dB Peak : 0.502991 CRC32 hash (test run) : F8BC4DA5 CRC32 hash : F8BC4DA5 CRC32 hash (skip zero) : 3F320471 AccurateRip v1 signature : 49DF80FE AccurateRip v2 signature : B3CD46EC ->Accurately ripped (v2, confidence 3/7) Statistics Read error : 0 Jitter error (maybe fixed) : 0 Retry sector count : 0 Damaged sector count : 0
    Track 09 Filename : /Volumes/RIPs/Bach - The Brandenburg Concertos (1991) [FLAC] {Brandenburg Consort}/CD2/09 - No. 6 in B-flat major, BWV 1051. III. Allegro.flac
    Track gain : -0.75 dB Peak : 0.944122 CRC32 hash (test run) : A3C021ED CRC32 hash : A3C021ED CRC32 hash (skip zero) : DA332732 AccurateRip v1 signature : DCCE8CA5 AccurateRip v2 signature : 7512EADF ->Accurately ripped (v2, confidence 3/7) Statistics Read error : 0 Jitter error (maybe fixed) : 0 Retry sector count : 0 Damaged sector count : 0
    No errors occurred
    End of status report
    -----BEGIN XLD SIGNATURE-----dZWs8Xbzs8pUU0lC1N.8zagve7Lri2DdfrKTT.ode3En9ee28p610TUxuHe3M0FU8H_ZCMD5scsgNn7f.gXIl1o3I_GkLeN_yyx2R6O-----END XLD SIGNATURE-----

    auCDtect Task Manager logs / Отчёты auCDtect Task ManagerCD 1: Konzerte Nrn. 1 • 2 • 3

    -----------------------
    DON'T MODIFY THIS FILE
    -----------------------
    PERFORMER: auCDtect Task Manager, ver. 1.5.1RC3 build 1.5.1.4Copyright (c) 2008-2010 y-soft. All rights reserved
    ANALYZER: auCDtect: CD records authenticity detector, version 0.8.2Copyright (c) 2004 Oleg Berngardt. All rights reserved.Copyright (c) 2004 Alexander Djourik. All rights reserved.
    FILE: 10 - Brandenburgisches Konzert Nr. 3 - III. Allegro.flac Size: 28252458 Hash: 641863B6B37906A3488CE89B14B4FA9A Accuracy: -m0 Conclusion: CDDA 100% Signature: 70D5260A0AE15839BCB54F0325A9EF68AB8A45C4FILE: 09 - Brandenburgisches Konzert Nr. 3 - II. Adagio.flac Size: 10515508 Hash: 8BB9AE3DE9957D49FBA31F4A8520F998 Accuracy: -m0 Conclusion: CDDA 99% Signature: D19073BCA64CBFCF353C9FC641772CA8884BF8C9FILE: 08 - Brandenburgisches Konzert Nr. 3 - I. (ohne Satzbezeichnung).flac Size: 31299538 Hash: 7B65DA3E0DFD16B0806E6974DF94106C Accuracy: -m0 Conclusion: CDDA 100% Signature: B6C68FBE8BD107EFAA90D646605D74B6DF092151FILE: 07 - Brandenburgisches Konzert Nr. 2 - III. Allegro assai.flac Size: 14288738 Hash: 80C2DD68AB5787ACCAD305FFF8B6E245 Accuracy: -m0 Conclusion: CDDA 99% Signature: 4D82D50DD9971AA3F6A5DE714985E3BF1AF5C7DFFILE: 06 - Brandenburgisches Konzert Nr. 2 - II. Andante.flac Size: 16398059 Hash: BD468B5EA4B8AD2B7D77139F593E9D20 Accuracy: -m0 Conclusion: CDDA 100% Signature: DE340FB11BDBB8A13B170CA6EB65AAC1102313F2FILE: 05 - Brandenburgisches Konzert Nr. 2 - I. (ohne Satzbezeichnung).flac Size: 26055397 Hash: 82D7AA5D5C37C7A74572BA51B820145E Accuracy: -m0 Conclusion: CDDA 100% Signature: 2D3217F7B5B196291759BB2202C83B38CA7B9EFFFILE: 04 - Brandenburgisches Konzert Nr. 1 - IV. Menuetto. - Polacca.flac Size: 39727367 Hash: 5139AF1060176201CD2D08FC3DF1E24B Accuracy: -m0 Conclusion: CDDA 43% Signature: 6E5BBEA3BF5EBDE82BEBDB2749A85F781D5F0D9FFILE: 03 - Brandenburgisches Konzert Nr. 1 - III. Allegro.flac Size: 21276406 Hash: 193CDB20E816940EB3782D87B54BB65E Accuracy: -m0 Conclusion: CDDA 100% Signature: 4DB24F3F813D4C02615A0AFC2E96275694214204FILE: 02 - Brandenburgisches Konzert Nr. 1 - II. Adagio.flac Size: 16438038 Hash: 16AFD68D80D7FD1D339BB42EE9D32A56 Accuracy: -m0 Conclusion: CDDA 92% Signature: 8CBA9852A85052851C5B3FECAB8E83B8E1C135F2FILE: 01 - Brandenburgisches Konzert Nr. 1 - I. (ohne Satzbezeichnung).flac Size: 20350936 Hash: 6A1F414B72DD22F8A2D15F6BE449E426 Accuracy: -m0 Conclusion: CDDA 100% Signature: 7DBAE6B96119E6D5589CE1B2FE7E1086030F5683

    CD 2: Konzerte Nrn. 4 • 5 • 6

    -----------------------
    DON'T MODIFY THIS FILE
    -----------------------
    PERFORMER: auCDtect Task Manager, ver. 1.5.1RC3 build 1.5.1.4Copyright (c) 2008-2010 y-soft. All rights reserved
    ANALYZER: auCDtect: CD records authenticity detector, version 0.8.2Copyright (c) 2004 Oleg Berngardt. All rights reserved.Copyright (c) 2004 Alexander Djourik. All rights reserved.
    FILE: 09 - Brandenburgisches Konzert Nr. 6 - III. Allegro.flac Size: 26458520 Hash: DE934C89B73EF2F08852251B9E702267 Accuracy: -m0 Conclusion: CDDA 100% Signature: 7781B29663795FE69566E278E58C01B4063674C6FILE: 08 - Brandenburgisches Konzert Nr. 6 - II. Adagio ma non tanto.flac Size: 20217949 Hash: 7776D2DCD5C8F36638790CC121579F7B Accuracy: -m0 Conclusion: CDDA 86% Signature: 272C30743009E0A1080414D95B98474C99F651BDFILE: 07 - Brandenburgisches Konzert Nr. 6 - I. (ohne Satzbezeichnung).flac Size: 26121822 Hash: 63F149B0F2E74E103C1653A8E159D0B5 Accuracy: -m0 Conclusion: CDDA 94% Signature: F75C7203DF770CC47933956743FBBE7001AEDE78FILE: 06 - Brandenburgisches Konzert Nr. 5 - III. Allegro.flac Size: 30910917 Hash: 361400BCC87761161FF787473A427A35 Accuracy: -m0 Conclusion: CDDA 99% Signature: 8DB5AF2375790315F4790B74AB33E619E3F18AA2FILE: 05 - Brandenburgisches Konzert Nr. 5 - II. Affettuoso.flac Size: 27654140 Hash: 93798FB93F9F267554FEF66033CCC787 Accuracy: -m0 Conclusion: CDDA 100% Signature: B3BA42D8091095417496A2A8152A819FECD123F7FILE: 04 - Brandenburgisches Konzert Nr. 5 - I. Allegro.flac Size: 62247770 Hash: 122041F3E23DF0823EC39179112BBC40 Accuracy: -m0 Conclusion: CDDA 100% Signature: B164D5DC23165E7F0613E1636C0186A031BA7471FILE: 03 - Brandenburgisches Konzert Nr. 4 - III. Presto.flac Size: 24960766 Hash: 23E2D897E79979480055D249F0633357 Accuracy: -m0 Conclusion: CDDA 100% Signature: EF481BA29A66349D2605E6E2238B19E0D8931DB1FILE: 02 - Brandenburgisches Konzert Nr. 4 - II. Andante.flac Size: 14746731 Hash: F291E98AC744A50FFDBA241CED692D86 Accuracy: -m0 Conclusion: CDDA 86% Signature: 17F7BA1DD19977E374BDEEA0561F34B128DA2E47FILE: 01 - Brandenburgisches Konzert Nr. 4 - I. Allegro.flac Size: 36609290 Hash: B8871D76D169900D4E918D46B10B7733 Accuracy: -m0 Conclusion: CDDA 100% Signature: 5F5AF624A73C9CE4DCE745232DF497054AAFAB10

    CUETools logs / Отчёты CUEToolsCD 1: Konzerte Nrn. 1 • 2 • 3

    [CUETools log; Date: 24.07.2015 18:07:24; Version: 2.1.4][AccurateRip ID: 001104dd-008837dd-770a3a0a] found.Track [ CRC | V2 ] Status 01 [97b32743|7721624c] (0+3/8) Accurately ripped 02 [c9d6a58b|899b34c5] (0+3/8) Accurately ripped 03 [c5369e2a|6b07183e] (0+3/8) Accurately ripped 04 [052feda2|41e7f478] (0+3/8) Accurately ripped 05 [4734805e|af68ddc2] (0+3/8) Accurately ripped 06 [bbb11d89|77f1657f] (0+3/8) Accurately ripped 07 [d1560e7a|4928241d] (0+3/8) Accurately ripped 08 [b6802005|8c375d70] (0+3/8) Accurately ripped 09 [1dd5d8cc|dd2469a5] (0+3/8) Accurately ripped 10 [62f90b97|8bc45603] (0+3/8) Accurately rippedOffsetted by -36: 01 [c7e84181] (2/8) Accurately ripped 02 [2053cdd6] (2/8) Accurately ripped 03 [85b666f9] (2/8) Accurately ripped 04 [b8d5dec3] (2/8) Accurately ripped 05 [af264b96] (2/8) Accurately ripped 06 [d34f7623] (2/8) Accurately ripped 07 [1270aec5] (2/8) Accurately ripped 08 [f39f80e0] (2/8) Accurately ripped 09 [13777e5c] (2/8) Accurately ripped 10 [8274eaf3] (2/8) Accurately ripped
    Track Peak [ CRC32 ] [W/O NULL] -- 97,3 [80ACE60F] [E960E453] 01 75,9 [510166C5] [6539FD2A] 02 41,1 [75169927] [9BABF1D1] 03 72,5 [E033A854] [84258E34] 04 74,9 [FA8ABBDD] [3B3A136C] 05 53,9 [CA20721D] [A6334E30] 06 33,9 [54950CA7] [48AE79E1] 07 47,1 [47197929] [5900829A] 08 89,9 [7A0B2C19] [A6833D62] 09 34,4 [E4E40AD8] [BCBEE7CF] 10 97,3 [8E439288] [AE037C15]

    CD 2: Konzerte Nrn. 4 • 5 • 6

    [CUETools log; Date: 24.07.2015 18:07:33; Version: 2.1.4][AccurateRip ID: 00111472-007d700c-720b7709] found.Track [ CRC | V2 ] Status 01 [806084d9|a9d57cb8] (0+3/8) Accurately ripped 02 [2fe1adb0|2083c9ad] (0+3/8) Accurately ripped 03 [9512de0e|17fe4e1d] (0+3/8) Accurately ripped 04 [48dbf025|bda1971b] (0+3/8) Accurately ripped 05 [8817548b|9c0c4a8d] (0+3/8) Accurately ripped 06 [6d705018|cb5a73c7] (0+3/8) Accurately ripped 07 [2b7b6eee|5ec4eac4] (0+3/8) Accurately ripped 08 [49df80fe|b3cd46ec] (0+3/8) Accurately ripped 09 [dcce8ca5|7512eadf] (0+3/8) Accurately rippedOffsetted by -36: 01 [5c17a7b3] (2/8) Accurately ripped 02 [d92559ff] (2/8) Accurately ripped 03 [57d9d9d7] (2/8) Accurately ripped 04 [77299e9b] (2/8) Accurately ripped 05 [0f8eb6a7] (2/8) Accurately ripped 06 [090b629d] (2/8) Accurately ripped 07 [a7c4c66b] (2/8) Accurately ripped 08 [016eb9bd] (2/8) Accurately ripped 09 [d0b506d7] (2/8) Accurately ripped
    Track Peak [ CRC32 ] [W/O NULL] -- 98,8 [5B43C4E4] [F5FFAA6B] 01 70,8 [76E2DCDB] [62ABC6B0] 02 66,3 [858B9459] [47D651F1] 03 98,8 [A899FAEB] [6A030005] 04 71,5 [97654FF0] [0C581409] 05 38,3 [4DEE3501] [8677CA2C] 06 66,4 [59BA89CB] [47D3EA2C] 07 65,7 [B7113DFA] [C0540B46] 08 50,2 [F8BC4DA5] [3F320471] 09 94,4 [A3C021ED] [DA332732]

    CUE sheetsCD 1: Konzerte Nrn. 1 • 2 • 3

    TITLE "Johann Sebastian Bach: Brandenburgische Konzerte"PERFORMER "Roy Goodman"CATALOG 0034571120010REM GENRE ClassicalREM DISCID 770A3A0AFILE "01 - Brandenburgisches Konzert Nr. 1 - I. (ohne Satzbezeichnung).flac" WAVE TRACK 01 AUDIO TITLE "Brandenburgisches Konzert Nr. 1 F-dur, BWV 1046: I. [ohne Satzbezeichnung]" PERFORMER "Brandenburg Consort. Roy Goodman, conductor" REM DATE 1991 INDEX 01 00:00:00FILE "02 - Brandenburgisches Konzert Nr. 1 - II. Adagio.flac" WAVE TRACK 02 AUDIO TITLE "Brandenburgisches Konzert Nr. 1 F-dur, BWV 1046: II. Adagio" PERFORMER "Brandenburg Consort. Roy Goodman, conductor" REM DATE 1991 INDEX 01 00:00:00FILE "03 - Brandenburgisches Konzert Nr. 1 - III. Allegro.flac" WAVE TRACK 03 AUDIO TITLE "Brandenburgisches Konzert Nr. 1 F-dur, BWV 1046: III. Allegro" PERFORMER "Brandenburg Consort. Roy Goodman, conductor" REM DATE 1991 INDEX 01 00:00:00FILE "04 - Brandenburgisches Konzert Nr. 1 - IV. Menuetto. - Polacca.flac" WAVE TRACK 04 AUDIO TITLE "Brandenburgisches Konzert Nr. 1 F-dur, BWV 1046: IV. Menuetto. — Polacca" PERFORMER "Brandenburg Consort. Roy Goodman, conductor" REM DATE 1991 INDEX 01 00:00:00FILE "05 - Brandenburgisches Konzert Nr. 2 - I. (ohne Satzbezeichnung).flac" WAVE TRACK 05 AUDIO TITLE "Brandenburgisches Konzert Nr. 2 F-dur, BWV 1047: I. [ohne Satzbezeichnung]" PERFORMER "Brandenburg Consort. Roy Goodman, conductor" REM DATE 1991 INDEX 01 00:00:00FILE "06 - Brandenburgisches Konzert Nr. 2 - II. Andante.flac" WAVE TRACK 06 AUDIO TITLE "Brandenburgisches Konzert Nr. 2 F-dur, BWV 1047: II. Andante" PERFORMER "Brandenburg Consort. Roy Goodman, conductor" REM DATE 1991 INDEX 01 00:00:00FILE "07 - Brandenburgisches Konzert Nr. 2 - III. Allegro assai.flac" WAVE TRACK 07 AUDIO TITLE "Brandenburgisches Konzert Nr. 2 F-dur, BWV 1047: III. Allegro assai" PERFORMER "Brandenburg Consort. Roy Goodman, conductor" REM DATE 1991 INDEX 01 00:00:00FILE "08 - Brandenburgisches Konzert Nr. 3 - I. (ohne Satzbezeichnung).flac" WAVE TRACK 08 AUDIO TITLE "Brandenburgisches Konzert Nr. 3 G-dur, BWV 1048: I. [ohne Satzbezeichnung]" PERFORMER "Brandenburg Consort. Roy Goodman, conductor" REM DATE 1991 INDEX 01 00:00:00FILE "09 - Brandenburgisches Konzert Nr. 3 - II. Adagio.flac" WAVE TRACK 09 AUDIO TITLE "Brandenburgisches Konzert Nr. 3 G-dur, BWV 1048: II. Adagio" PERFORMER "Brandenburg Consort. Roy Goodman, conductor" REM DATE 1991 INDEX 01 00:00:00FILE "10 - Brandenburgisches Konzert Nr. 3 - III. Allegro.flac" WAVE TRACK 10 AUDIO TITLE "Brandenburgisches Konzert Nr. 3 G-dur, BWV 1048: III. Allegro" PERFORMER "Brandenburg Consort. Roy Goodman, conductor" REM DATE 1991 INDEX 01 00:00:00

    CD 2: Konzerte Nrn. 4 • 5 • 6

    TITLE "Johann Sebastian Bach: Brandenburgische Konzerte"PERFORMER "Roy Goodman"CATALOG 0034571120010REM GENRE ClassicalREM DISCID 720B7709FILE "01 - Brandenburgisches Konzert Nr. 4 - I. Allegro.flac" WAVE TRACK 01 AUDIO TITLE "Brandenburgisches Konzert Nr. 4 G-dur, BWV 1049: I. Allegro" PERFORMER "Brandenburg Consort. Roy Goodman, conductor" REM DATE 1991 INDEX 01 00:00:00FILE "02 - Brandenburgisches Konzert Nr. 4 - II. Andante.flac" WAVE TRACK 02 AUDIO TITLE "Brandenburgisches Konzert Nr. 4 G-dur, BWV 1049: II. Andante" PERFORMER "Brandenburg Consort. Roy Goodman, conductor" REM DATE 1991 INDEX 01 00:00:00FILE "03 - Brandenburgisches Konzert Nr. 4 - III. Presto.flac" WAVE TRACK 03 AUDIO TITLE "Brandenburgisches Konzert Nr. 4 G-dur, BWV 1049: III. Presto" PERFORMER "Brandenburg Consort. Roy Goodman, conductor" REM DATE 1991 INDEX 01 00:00:00FILE "04 - Brandenburgisches Konzert Nr. 5 - I. Allegro.flac" WAVE TRACK 04 AUDIO TITLE "Brandenburgisches Konzert Nr. 5 D-dur, BWV 1050: I. Allegro" PERFORMER "Brandenburg Consort. Roy Goodman, conductor" REM DATE 1991 INDEX 01 00:00:00FILE "05 - Brandenburgisches Konzert Nr. 5 - II. Affettuoso.flac" WAVE TRACK 05 AUDIO TITLE "Brandenburgisches Konzert Nr. 5 D-dur, BWV 1050: II. Affettuoso" PERFORMER "Brandenburg Consort. Roy Goodman, conductor" REM DATE 1991 INDEX 01 00:00:00FILE "06 - Brandenburgisches Konzert Nr. 5 - III. Allegro.flac" WAVE TRACK 06 AUDIO TITLE "Brandenburgisches Konzert Nr. 5 D-dur, BWV 1050: III. Allegro" PERFORMER "Brandenburg Consort. Roy Goodman, conductor" REM DATE 1991 INDEX 01 00:00:00FILE "07 - Brandenburgisches Konzert Nr. 6 - I. (ohne Satzbezeichnung).flac" WAVE TRACK 07 AUDIO TITLE "Brandenburgisches Konzert Nr. 6 B-dur, BWV 1051: I. [ohne Satzbezeichnung]" PERFORMER "Brandenburg Consort. Roy Goodman, conductor" REM DATE 1991 INDEX 01 00:00:00FILE "08 - Brandenburgisches Konzert Nr. 6 - II. Adagio ma non tanto.flac" WAVE TRACK 08 AUDIO TITLE "Brandenburgisches Konzert Nr. 6 B-dur, BWV 1051: II. Adagio ma non tanto" PERFORMER "Brandenburg Consort. Roy Goodman, conductor" REM DATE 1991 INDEX 01 00:00:00FILE "09 - Brandenburgisches Konzert Nr. 6 - III. Allegro.flac" WAVE TRACK 09 AUDIO TITLE "Brandenburgisches Konzert Nr. 6 B-dur, BWV 1051: III. Allegro" PERFORMER "Brandenburg Consort. Roy Goodman, conductor" REM DATE 1991 INDEX 01 00:00:00
    -
    Johann Sebastian Bach — каталог раздач на rutracker.org Все мои раздачи / All my releases
    [teatrix.ru].t9643.torrent 
    Торрент: Зарегистрирован [ 2015-10-23 17:11 ] · A49148F86EAC9EA06069080781985E75E1F6AAC0

    Скачать .torrent

    Скачать

    23 KB

    Статус: проверено
    Скачан: 0 раз
    Размер: 473 MB
    terms.php



  • Быстрый ответ

    Имя:

          
    Для отправки сообщений необходимо включить JavaScript
    Показать сообщения:    

    Текущее время: 18-Янв 02:32

    Часовой пояс: UTC + 3


    Вы можете начинать темы
    Вы можете отвечать на сообщения
    Вы не можете редактировать свои сообщения
    Вы не можете удалять свои сообщения
    Вы не можете голосовать в опросах
    Вы не можете прикреплять файлы к сообщениям
    Вы можете скачивать файлы