(Classical) Жозеф Йонген – Виолончельный концерт, «Арденнские впечатления», Фантазия / Joseph Jongen – Cello concerto; «Impressions d\'Ardennes»; Fantaisie sur deux noels (Marie Hallynck, Roman Kofman) - 2010, FLAC (image+.cue) lossless


Статистика раздачи [Обновить пиров]
Размер:  282 MB   |    Зарегистрирован:  1 год 1 месяц   |    Скачан:  0 раз

Полного источника не было: Никогда

 
   
 
 
 

[Цитировать]

Жозеф Йонген – Виолончельный концерт, «Арденнские впечатления», Фантазия / Joseph Jongen – Cello concerto; «Impressions d'Ardennes»; Fantaisie sur deux noëls (Marie Hallynck, Roman Kofman)
Жанр: Classical
Страна-производитель диска: ЕС
Год издания диска: 2010
Издатель (лейбл): cypres
Номер по каталогу: CYP1634
Дата записи: 9 — 13 июля 2002 г., Брюссель
Аудиокодек: FLAC
Тип рипа: image+.cue
Битрейт аудио: lossless
Продолжительность: 01:05:14
Источник: odeonmusic
Наличие сканов в содержимом раздачи: да
Треклист:-Жозеф Мари Альфонс Николя Йонген (1873 — 1953).-01. «Арденнские впечателения» (Impressions d'Ardennes), [симфоническая поэма] F-dur для оркестра, op. 44 (1913) [14:53].
Виолончельный концерт D-dur, op. 18 (1900, первое исп. 1904).
02. I. Large. — Modérément animé [13:36].
03. II. Assez lent [11:33].
04. III. Modéré. — Décidé [09:50].
05. Фантазия G-dur на темы двух валлонских народных рождественских песен для оркестра, op. 24 (1902) [15:17].-Исполнители:
Marie Hallynck (виолончель).
Orchestre National de Belgique.
Дирижер Roman Kofman.-

Лог создания рипа

Exact Audio Copy V1.0 beta 3 from 29. August 2011
EAC extraction logfile from 21. March 2013, 22:14
Marie Hallynck / Joseph Jongen - Impressions d'Ardennes, Cello Concerto - Roman Kofman
Used drive : TSSTcorpCDDVDW SH-222BB Adapter: 2 ID: 1
Read mode : SecureUtilize accurate stream : YesDefeat audio cache : YesMake use of C2 pointers : No
Read offset correction : 6Overread into Lead-In and Lead-Out : NoFill up missing offset samples with silence : YesDelete leading and trailing silent blocks : NoNull samples used in CRC calculations : YesUsed interface : Native Win32 interface for Win NT & 2000
Used output format : User Defined EncoderSelected bitrate : 1024 kBit/sQuality : HighAdd ID3 tag : NoCommand line compressor : C:\Program Files\Exact Audio Copy\Flac\flac.exeAdditional command line options : -8 -V -T "TITLE=%title%" -T "ARTIST=%artist%" -T "ALBUMARTIST=%albumartist%" -T "ALBUM=%albumtitle%" -T "DATE=%year%" -T "TRACKNUMBER=%tracknr%" -T "TRACKTOTAL=%numtracks%" -T "GENRE=%genre%" -T "COMMENT=%comment%" -T "PERFORMER=%albuminterpret%" -T "COMPOSER=%composer%" %source% -o %dest%
TOC of the extracted CD
Track | Start | Length | Start sector | End sector --------------------------------------------------------- 1 | 0:00.00 | 14:53.55 | 0 | 67029 2 | 14:53.55 | 13:36.24 | 67030 | 128253 3 | 28:30.04 | 11:33.56 | 128254 | 180284 4 | 40:03.60 | 9:50.71 | 180285 | 224605 5 | 49:54.56 | 15:17.64 | 224606 | 293444
Range status and errors
Selected range
Filename G:\Ripped general\[9026] Joseph Jongen – Impressions d'Ardennes, Cello Concerto – Roman Kofman\Joseph Jongen - Impressions d'Ardennes, Cello Concerto - Roman Kofman.wav
Peak level 99.3 % Extraction speed 7.5 X Range quality 99.9 % Test CRC 6C60F2D6 Copy CRC 6C60F2D6 Copy OK
No errors occurred
AccurateRip summary
Track 1 cannot be verified as accurate (confidence 2) [5867A3C6], AccurateRip returned [9A60D083] (AR v2)Track 2 cannot be verified as accurate (confidence 3) [63D1458E], AccurateRip returned [CF10B113] (AR v2)Track 3 cannot be verified as accurate (confidence 3) [48DBD3B7], AccurateRip returned [4B3DD601] (AR v2)Track 4 cannot be verified as accurate (confidence 3) [E30E7930], AccurateRip returned [D1F45E5A] (AR v2)Track 5 cannot be verified as accurate (confidence 2) [B8EB7B5C], AccurateRip returned [138F7A52] (AR v2)
No tracks could be verified as accurateYou may have a different pressing from the one(s) in the database
End of status report

Содержание индексной карты (.CUE)

REM GENRE ClassicalREM DATE 2002REM DISCID 480F4805REM COMMENT "ExactAudioCopy v1.0b3"PERFORMER "Marie Hallynck & Roman Kofman"TITLE "Joseph Jongen – Impressions d'Ardennes, Cello concerto – Roman Kofman"FILE "Joseph Jongen – Impressions d'Ardennes, Cello concerto – Roman Kofman.flac" WAVE TRACK 01 AUDIO TITLE "Impressions d'Ardennes, for orchestra, Op. 44" PERFORMER "Roman Kofman" INDEX 01 00:00:00 TRACK 02 AUDIO TITLE "Cello Concerto, Op. 18 - I. Large - Moderement anime" PERFORMER "Marie Hallynck & Roman Kofman" INDEX 00 14:47:56 INDEX 01 14:53:55 TRACK 03 AUDIO TITLE "Cello Concerto, Op. 18 - II. Assez lent" PERFORMER "Marie Hallynck & Roman Kofman" INDEX 00 28:26:07 INDEX 01 28:30:04 TRACK 04 AUDIO TITLE "Cello Concerto, Op. 18 - III. Modere - Decide" PERFORMER "Marie Hallynck & Roman Kofman" INDEX 00 40:00:64 INDEX 01 40:03:60 TRACK 05 AUDIO TITLE "Fantaisie sur deux noels populaires wallons, for orchestra, Op. 24" PERFORMER "& Roman Kofman" INDEX 00 49:50:14 INDEX 01 49:54:56
[teatrix.ru].t9644.torrent 
Торрент: Зарегистрирован [ 2015-10-23 17:11 ] · CC9F6E86F6149487826BC534E5F1EBB698526FF4

Скачать .torrent

Скачать

13 KB

Статус: проверено
Скачан: 0 раз
Размер: 282 MB
terms.php



Быстрый ответ

Имя:

      
Для отправки сообщений необходимо включить JavaScript
Показать сообщения:    

Текущее время: 09-Дек 03:04

Часовой пояс: UTC + 3


Вы можете начинать темы
Вы можете отвечать на сообщения
Вы не можете редактировать свои сообщения
Вы не можете удалять свои сообщения
Вы не можете голосовать в опросах
Вы не можете прикреплять файлы к сообщениям
Вы можете скачивать файлы