(Classical / Piano Concerto) Johannes Brahms - Die Klavierkonzerte • Fantasien, Op. 116 (Эмиль Гилельс / Emil Gilels, Berliner Philharmoniker, Eugen Jochum, 1972/1975) - 1996 [2 CD], FLAC (tracks+.cue) lossless


Статистика раздачи [Обновить пиров]
Размер:  498 MB   |    Зарегистрирован:  1 год 1 месяц   |    Скачан:  1 раз

Полного источника не было: 8 месяцев

Личеров:  3  [  0 KB/s  ]   Подробная статистика пиров
 
   
 
 
 

[Цитировать]

Johannes Brahms | Йоханнес Брамс
(1833–1897)



Die Klavierkonzerte | Fantasien, Op. 116
Фортепианные концерты | Фантазии, Соч. 116


Эмиль Гилельс piano
Berliner Philharmoniker
Eugen Jochum conductor


Жанр: Classical / Piano Concerto
Даты записи: 1972, 1975
Формат записи: ADD, Stereo
Год издания диска: 1996
Издатель (лейбл): Deutsche Grammophon
Номер по каталогу: 447 446-2
Аудиокодек: FLAC
Тип рипа: tracks+.cue
Битрейт аудио: lossless
Продолжительность: 2:05:20
Наличие сканов в содержимом раздачи: да
Источник: What.CD
Релизёр: ngghim


-
Tracklist / ТреклистCD 1: Klavierkonzert Nr. 1
Klavierkonzert Nr. 1 d-moll, Op. 15 - 51:43
I. Maestoso - 24:15
  • II. Adagio - 14:49
  • III. Rondo: Allegro non troppo - 12:39
    Recorded: Jesus-Christus-Kirche, Berlin, Germany, June 1972CD 2: Klavierkonzert Nr. 2 • Fantasien, Op. 116
    Klavierkonzert Nr. 2 B-dur, Op. 83 - 51:53
    I. Allegro non troppo - 18:22
  • II. Allegro appassionato - 9:31
  • III. Andante - 14:04
  • IV. Allegretto grazioso - 9:56
    Ottomar Borwitzky (cello) [3]
    Recorded: Jesus-Christus-Kirche, Berlin, Germany, June 1972
    7 Fantasien, Op. 116 - 21:44
    Nr. 1. Capriccio d-moll - 2:11
  • Nr. 2. Intermezzo a-moll - 3:35
  • Nr. 3. Capriccio g-moll - 3:13
  • Nr. 4. Intermezzo E-dur - 4:22
  • Nr. 5. Intermezzo e-moll - 3:00
  • Nr. 6. Intermezzo E-dur - 3:07
  • Nr. 7. Capriccio d-moll - 2:16
    Recorded: Concert Hall, Turku, Finland, September 1975
    -

    EAC logs / Отчёты EACCD 1: Klavierkonzert Nr. 1

    Exact Audio Copy V0.99 prebeta 5 from 4. May 2009
    EAC extraction logfile from 1. December 2009, 22:35
    Brahms - Die Klavierkonzerte, Fantasien op. 116 / Emil Gilels, Eugen Jochum Berliner Philharmoniker(CD 1)
    Used drive : HL-DT-STRW/DVD GCC-4522B Adapter: 1 ID: 1
    Read mode : SecureUtilize accurate stream : YesDefeat audio cache : YesMake use of C2 pointers : No
    Read offset correction : 6Overread into Lead-In and Lead-Out : NoFill up missing offset samples with silence : YesDelete leading and trailing silent blocks : NoNull samples used in CRC calculations : YesUsed interface : Native Win32 interface for Win NT & 2000Gap handling : Appended to previous track
    Used output format : User Defined EncoderSelected bitrate : 768 kBit/sQuality : HighAdd ID3 tag : NoCommand line compressor : C:\Program Files\FLAC\flac.exeAdditional command line options : -V -8 -T "artist=%a" -T "title=%t" -T "album=%g" -T "date=%y" -T "tracknumber=%n" -T "genre=%m" %s
    TOC of the extracted CD
    Track | Start | Length | Start sector | End sector --------------------------------------------------------- 1 | 0:00.32 | 24:15.00 | 32 | 109156 2 | 24:15.32 | 14:49.00 | 109157 | 175831 3 | 39:04.32 | 12:39.00 | 175832 | 232756
    Track 1
    Filename E:\what.cd\Brahms - Die Klavierkonzerte, Fantasien op. 116 (Emil Gilels, Eugen Jochum Berliner Philharmoniker)\CD1\01 - Piano Concerto No.1 in D minor Op.15 (1) Maestoso.wav
    Pre-gap length 0:00:02.32
    Peak level 99.9 % Track quality 100.0 % Test CRC C09153D7 Copy CRC C09153D7 Accurately ripped (confidence 9) [A97FB373] Copy OK
    Track 2
    Filename E:\what.cd\Brahms - Die Klavierkonzerte, Fantasien op. 116 (Emil Gilels, Eugen Jochum Berliner Philharmoniker)\CD1\02 - Piano Concerto No.1 in D minor Op.15 (2) Adagio.wav
    Peak level 96.1 % Track quality 100.0 % Test CRC 601311A7 Copy CRC 601311A7 Accurately ripped (confidence 9) [D9A66C85] Copy OK
    Track 3
    Filename E:\what.cd\Brahms - Die Klavierkonzerte, Fantasien op. 116 (Emil Gilels, Eugen Jochum Berliner Philharmoniker)\CD1\03 - Piano Concerto No.1 in D minor Op.15 (3) Rondo. Allegro non troppo.wav
    Peak level 99.9 % Track quality 100.0 % Test CRC 94C18FE4 Copy CRC 94C18FE4 Accurately ripped (confidence 9) [BC4C962C] Copy OK
    All tracks accurately ripped
    No errors occurred
    End of status report

    CD 2: Klavierkonzert Nr. 2 • Fantasien, Op. 116

    Exact Audio Copy V0.99 prebeta 5 from 4. May 2009
    EAC extraction logfile from 1. December 2009, 23:06
    Brahms - Die Klavierkonzerte, Fantasien op. 116 / Emil Gilels, Eugen Jochum Berliner Philharmoniker(CD 2)
    Used drive : HL-DT-STRW/DVD GCC-4522B Adapter: 1 ID: 1
    Read mode : SecureUtilize accurate stream : YesDefeat audio cache : YesMake use of C2 pointers : No
    Read offset correction : 6Overread into Lead-In and Lead-Out : NoFill up missing offset samples with silence : YesDelete leading and trailing silent blocks : NoNull samples used in CRC calculations : YesUsed interface : Native Win32 interface for Win NT & 2000Gap handling : Appended to previous track
    Used output format : User Defined EncoderSelected bitrate : 768 kBit/sQuality : HighAdd ID3 tag : NoCommand line compressor : C:\Program Files\FLAC\flac.exeAdditional command line options : -V -8 -T "artist=%a" -T "title=%t" -T "album=%g" -T "date=%y" -T "tracknumber=%n" -T "genre=%m" %s
    TOC of the extracted CD
    Track | Start | Length | Start sector | End sector --------------------------------------------------------- 1 | 0:00.32 | 18:22.00 | 32 | 82681 2 | 18:22.32 | 9:31.00 | 82682 | 125506 3 | 27:53.32 | 14:04.00 | 125507 | 188806 4 | 41:57.32 | 9:56.00 | 188807 | 233506 5 | 51:53.32 | 2:11.00 | 233507 | 243331 6 | 54:04.32 | 3:35.00 | 243332 | 259456 7 | 57:39.32 | 3:13.00 | 259457 | 273931 8 | 60:52.32 | 4:22.00 | 273932 | 293581 9 | 65:14.32 | 3:00.00 | 293582 | 307081 10 | 68:14.32 | 3:07.00 | 307082 | 321106 11 | 71:21.32 | 2:16.00 | 321107 | 331306
    Track 1
    Filename E:\what.cd\Brahms - Die Klavierkonzerte, Fantasien op. 116 (Emil Gilels, Eugen Jochum Berliner Philharmoniker)\CD2\01 - Piano Concerto No.2 in B major Op.83 (1) Allegro non tropo.wav
    Pre-gap length 0:00:02.32
    Peak level 99.9 % Track quality 100.0 % Test CRC 404D4F01 Copy CRC 404D4F01 Accurately ripped (confidence 9) [F35293A4] Copy OK
    Track 2
    Filename E:\what.cd\Brahms - Die Klavierkonzerte, Fantasien op. 116 (Emil Gilels, Eugen Jochum Berliner Philharmoniker)\CD2\02 - Piano Concerto No.2 in B major Op.83 (2) Allegro appassionato.wav
    Peak level 99.9 % Track quality 100.0 % Test CRC 68617832 Copy CRC 68617832 Accurately ripped (confidence 10) [C68200D9] Copy OK
    Track 3
    Filename E:\what.cd\Brahms - Die Klavierkonzerte, Fantasien op. 116 (Emil Gilels, Eugen Jochum Berliner Philharmoniker)\CD2\03 - Piano Concerto No.2 in B major Op.83 (3) Andante.wav
    Peak level 85.2 % Track quality 100.0 % Test CRC 9F111445 Copy CRC 9F111445 Accurately ripped (confidence 10) [25823A04] Copy OK
    Track 4
    Filename E:\what.cd\Brahms - Die Klavierkonzerte, Fantasien op. 116 (Emil Gilels, Eugen Jochum Berliner Philharmoniker)\CD2\04 - Piano Concerto No.2 in B major Op.83 (4) Allegretto grazioso.wav
    Peak level 98.0 % Track quality 100.0 % Test CRC EF76416B Copy CRC EF76416B Accurately ripped (confidence 10) [31079661] Copy OK
    Track 5
    Filename E:\what.cd\Brahms - Die Klavierkonzerte, Fantasien op. 116 (Emil Gilels, Eugen Jochum Berliner Philharmoniker)\CD2\05 - Fantasien op. 116 No.1 Capriccio. Presto energico.wav
    Pre-gap length 0:00:09.00
    Peak level 90.4 % Track quality 100.0 % Test CRC 2AE5A3C1 Copy CRC 2AE5A3C1 Accurately ripped (confidence 10) [4A6FF659] Copy OK
    Track 6
    Filename E:\what.cd\Brahms - Die Klavierkonzerte, Fantasien op. 116 (Emil Gilels, Eugen Jochum Berliner Philharmoniker)\CD2\06 - Fantasien op. 116 No.2 Intermezzo. Andante.wav
    Peak level 49.9 % Track quality 100.0 % Test CRC 2B694057 Copy CRC 2B694057 Accurately ripped (confidence 10) [3D34B693] Copy OK
    Track 7
    Filename E:\what.cd\Brahms - Die Klavierkonzerte, Fantasien op. 116 (Emil Gilels, Eugen Jochum Berliner Philharmoniker)\CD2\07 - Fantasien op. 116 No.3 Capriccio. Allegro passionato.wav
    Peak level 83.1 % Track quality 100.0 % Test CRC C0EE054A Copy CRC C0EE054A Accurately ripped (confidence 10) [25BEC5D4] Copy OK
    Track 8
    Filename E:\what.cd\Brahms - Die Klavierkonzerte, Fantasien op. 116 (Emil Gilels, Eugen Jochum Berliner Philharmoniker)\CD2\08 - Fantasien op. 116 No.4 Intermezzo. Adagio.wav
    Peak level 41.9 % Track quality 99.9 % Test CRC C1B49410 Copy CRC C1B49410 Accurately ripped (confidence 10) [09148141] Copy OK
    Track 9
    Filename E:\what.cd\Brahms - Die Klavierkonzerte, Fantasien op. 116 (Emil Gilels, Eugen Jochum Berliner Philharmoniker)\CD2\09 - Fantasien op. 116 No.5 Intermezzo. Andante con grazia ed inimissimo sentimento.wav
    Peak level 32.5 % Track quality 99.9 % Test CRC 19A5E533 Copy CRC 19A5E533 Accurately ripped (confidence 10) [76E911C1] Copy OK
    Track 10
    Filename E:\what.cd\Brahms - Die Klavierkonzerte, Fantasien op. 116 (Emil Gilels, Eugen Jochum Berliner Philharmoniker)\CD2\10 - Fantasien op. 116 No.6 Intermezzo Andantino teneramente.wav
    Peak level 65.0 % Track quality 100.0 % Test CRC 37632D71 Copy CRC 37632D71 Accurately ripped (confidence 11) [558556B8] Copy OK
    Track 11
    Filename E:\what.cd\Brahms - Die Klavierkonzerte, Fantasien op. 116 (Emil Gilels, Eugen Jochum Berliner Philharmoniker)\CD2\11 - Fantasien op. 116 No.7 Capriccio. Allegro agitato.wav
    Peak level 88.3 % Track quality 100.0 % Test CRC 08D75EAF Copy CRC 08D75EAF Accurately ripped (confidence 10) [469DB13E] Copy OK
    All tracks accurately ripped
    No errors occurred
    End of status report

    auCDtect Task Manager logs / Отчёты auCDtect Task ManagerCD 1: Klavierkonzert Nr. 1

    -----------------------
    DON'T MODIFY THIS FILE
    -----------------------
    PERFORMER: auCDtect Task Manager, ver. 1.5.1RC3 build 1.5.1.4Copyright (c) 2008-2010 y-soft. All rights reserved
    ANALYZER: auCDtect: CD records authenticity detector, version 0.8.2Copyright (c) 2004 Oleg Berngardt. All rights reserved.Copyright (c) 2004 Alexander Djourik. All rights reserved.
    FILE: 03 - Klavierkonzert Nr. 1 d-moll, Op. 15 - III. Rondo. Allegro non troppo.flac Size: 53561926 Hash: D151FF35C25C0752A8A645ECDB0C8DEE Accuracy: -m0 Conclusion: CDDA 86% Signature: B27C97E1CD9E8C4FD0E6FEA37D8D4AD557BE0020FILE: 02 - Klavierkonzert Nr. 1 d-moll, Op. 15 - II. Adagio.flac Size: 52784064 Hash: 1A5F7C1336A1D70AFDF62189E66F2F3C Accuracy: -m0 Conclusion: CDDA 92% Signature: F994DF42238508ED145B5527D63A360F7C776B5CFILE: 01 - Klavierkonzert Nr. 1 d-moll, Op. 15 - I. Maestoso.flac Size: 101061909 Hash: 79C720F9DF1D9A514DE75BDC227A3214 Accuracy: -m0 Conclusion: CDDA 100% Signature: 4481C6A605CE0C9492FAFA1584E10FA30160332B

    CD 2: Klavierkonzert Nr. 2 • Fantasien, Op. 116

    -----------------------
    DON'T MODIFY THIS FILE
    -----------------------
    PERFORMER: auCDtect Task Manager, ver. 1.5.1RC3 build 1.5.1.4Copyright (c) 2008-2010 y-soft. All rights reserved
    ANALYZER: auCDtect: CD records authenticity detector, version 0.8.2Copyright (c) 2004 Oleg Berngardt. All rights reserved.Copyright (c) 2004 Alexander Djourik. All rights reserved.
    FILE: 11 - 7 Fantasien, Op. 116 - Nr. 7. Capriccio d-moll.flac Size: 7993290 Hash: 5664A8C2591B30310142EA876BE72AFD Accuracy: -m0 Conclusion: MPEG 93% Signature: 501BCE40C6CBA840A4B07B36A9221878A8E81E8BFILE: 10 - 7 Fantasien, Op. 116 - Nr. 6. Intermezzo E-dur.flac Size: 9496243 Hash: 6A7E2D878650E9F275274CFB621AF551 Accuracy: -m0 Conclusion: MPEG 90% Signature: EA7E195A85EF2BEB4EACD0446C688E2121A94594FILE: 09 - 7 Fantasien, Op. 116 - Nr. 5. Intermezzo e-moll.flac Size: 8517027 Hash: 3FEA1AB50D4852E24BB42F37FDF2F131 Accuracy: -m0 Conclusion: CDDA 49% Signature: C933769F282473BE9273EF06FE4D5F26A255E419FILE: 08 - 7 Fantasien, Op. 116 - Nr. 4. Intermezzo E-dur.flac Size: 12424431 Hash: 325338E91037A21421C4881249B27F52 Accuracy: -m0 Conclusion: CDDA 54% Signature: 1ED6F8A333816110D0BCF6E829BAC147B04836E1FILE: 07 - 7 Fantasien, Op. 116 - Nr. 3. Capriccio g-moll.flac Size: 11021891 Hash: D724DAE7505732E81BEF5B6E7A5A36DB Accuracy: -m0 Conclusion: MPEG 90% Signature: 23206447FF8DC9F3C767D67158A3AD4F135AA3CDFILE: 06 - 7 Fantasien, Op. 116 - Nr. 2. Intermezzo a-moll.flac Size: 10415090 Hash: 6C60D34610DFE477CDBB7DD888161FD8 Accuracy: -m0 Conclusion: CDDA 43% Signature: 402F3EBBC08B191E176E50CC7D52170C7F70E66AFILE: 05 - 7 Fantasien, Op. 116 - Nr. 1. Capriccio d-moll.flac Size: 7972279 Hash: 9D33CB5E21ADAA86C8B9D38C9DC06CF0 Accuracy: -m0 Conclusion: MPEG 93% Signature: 6E2EF0F33C6D19EA370526CE75210CF3E7A7978BFILE: 04 - Klavierkonzert Nr. 2 B-dur, Op. 83 - IV. Allegretto grazioso.flac Size: 43286316 Hash: 47A16774A8D8A8CCD0737B3E4F21C9E2 Accuracy: -m0 Conclusion: CDDA 100% Signature: 9490A02118686133CABD5008E0F1BB9F833A08C2FILE: 03 - Klavierkonzert Nr. 2 B-dur, Op. 83 - III. Andante.flac Size: 51670801 Hash: D8F7D7EAF4453EB2970D3DCF999A94E2 Accuracy: -m0 Conclusion: CDDA 85% Signature: 7533259A79B149DC448526D9F748C01E67995D08FILE: 02 - Klavierkonzert Nr. 2 B-dur, Op. 83 - II. Allegro appassionato.flac Size: 42591471 Hash: 6936145EED09D79997104C41E1FF160E Accuracy: -m0 Conclusion: CDDA 100% Signature: CACFE5079D7C56816E2E0FB4B6A339DD616A548DFILE: 01 - Klavierkonzert Nr. 2 B-dur, Op. 83 - I. Allegro non troppo.flac Size: 80203059 Hash: 98EE0050AE9DA77B78EF5C0E8933C3AB Accuracy: -m0 Conclusion: CDDA 100% Signature: 3C5CAB6501ECB2EFAAA314E84C33B00E1833DBC8

    CUETools logs / Отчёты CUEToolsCD 1: Klavierkonzert Nr. 1

    [CUETools log; Date: 09.07.2015 22:56:47; Version: 2.1.4]Pregap length 00:00:32.[AccurateRip ID: 0007e692-00199646-220c1f03] found.Track [ CRC | V2 ] Status 01 [a97fb373|faff0b53] (021+037/199) Accurately ripped 02 [d9a66c85|968998fd] (021+037/201) Accurately ripped 03 [bc4c962c|0d51d7f4] (021+038/203) Accurately rippedOffsetted by -1333: 01 [3e91bb8d] (023/199) Accurately ripped 02 [49dd905e] (023/201) Accurately ripped 03 [dfc24563] (023/203) Accurately rippedOffsetted by -669: 01 [dc7cb212] (010/199) Accurately ripped 02 [e17e5b26] (011/201) Accurately ripped 03 [d083c8aa] (012/203) Accurately rippedOffsetted by -235: 01 [d83ceb7a] (018/199) Accurately ripped 02 [225e03fe] (018/201) Accurately ripped 03 [177a6236] (018/203) Accurately rippedOffsetted by 1788: 01 [6cf9df05] (014/199) Accurately ripped 02 [ab50af47] (014/201) Accurately ripped 03 [aca441d8] (014/203) Accurately rippedOffsetted by -767: 01 [bb163349] (000/199) No match (V2 was not tested) 02 [49cc0a1f] (000/201) No match (V2 was not tested) 03 [b9d0fb7e] (000/203) No match (V2 was not tested)Offsetted by -300: 01 [3da6d339] (000/199) No match (V2 was not tested) 02 [bb59c4a7] (000/201) No match (V2 was not tested) 03 [f7fcaae4] (000/203) No match (V2 was not tested)
    Track Peak [ CRC32 ] [W/O NULL] [ LOG ] -- 99,9 [94D2453F] [D9C8E473] 01 99,9 [C09153D7] [BA0F7141] CRC32 02 96,1 [601311A7] [FA9E1434] CRC32 03 99,9 [94C18FE4] [41CA6A2E] CRC32

    CD 2: Klavierkonzert Nr. 2 • Fantasien, Op. 116

    [CUETools log; Date: 09.07.2015 22:57:00; Version: 2.1.4]Pregap length 00:00:32.[AccurateRip ID: 002897ee-0142c5de-9c11410b] found.Track [ CRC | V2 ] Status 01 [f35293a4|e81dea81] (020+036/198) Accurately ripped 02 [c68200d9|2a80af9f] (021+036/198) Accurately ripped 03 [25823a04|de378467] (021+034/196) Accurately ripped 04 [31079661|e1cceddb] (021+035/197) Accurately ripped 05 [4a6ff659|a6ae2286] (023+036/202) Accurately ripped 06 [3d34b693|146e340d] (023+035/201) Accurately ripped 07 [25bec5d4|19ed9c8b] (023+036/201) Accurately ripped 08 [09148141|c42ee80b] (023+036/200) Accurately ripped 09 [76e911c1|3cc01bdb] (023+036/201) Accurately ripped 10 [558556b8|c624a08c] (024+036/203) Accurately ripped 11 [469db13e|e822c2d8] (023+036/202) Accurately rippedOffsetted by -1333: 01 [0240e5b9] (014/198) Accurately ripped 02 [c6b8bdc7] (013/198) Accurately ripped 03 [ee135b9d] (013/196) Accurately ripped 04 [aadaf3ec] (014/197) Accurately ripped 05 [eafce79b] (014/202) Accurately ripped 06 [1a7b8a2f] (014/201) Accurately ripped 07 [2aa49cd0] (014/201) Accurately ripped 08 [66f92f3e] (013/200) Accurately ripped 09 [b31668ff] (014/201) Accurately ripped 10 [fcea7869] (014/203) Accurately ripped 11 [07988a1c] (014/202) Accurately rippedOffsetted by -676: 01 [b96a3f60] (002/198) Accurately ripped 02 [951f1d71] (002/198) Accurately ripped 03 [c98dfa5d] (002/196) Accurately ripped 04 [0feb24aa] (002/197) Accurately ripped 05 [d022babd] (002/202) Accurately ripped 06 [134d073e] (002/201) Accurately ripped 07 [20488042] (002/201) Accurately ripped 08 [024ea018] (002/200) Accurately ripped 09 [3950ffcf] (002/201) Accurately ripped 10 [13b661f0] (002/203) Accurately ripped 11 [87246a8a] (002/202) Accurately rippedOffsetted by -669: 01 [a49e3f33] (007/198) Accurately ripped 02 [fddf19ff] (007/198) Accurately ripped 03 [2d16e18c] (007/196) Accurately ripped 04 [22217954] (007/197) Accurately ripped 05 [e76bccbf] (008/202) Accurately ripped 06 [081d44bd] (008/201) Accurately ripped 07 [a3e5b965] (008/201) Accurately ripped 08 [30a12a31] (008/200) Accurately ripped 09 [b47ab815] (008/201) Accurately ripped 10 [26e36ee0] (008/203) Accurately ripped 11 [9b5a6e10] (008/202) Accurately rippedOffsetted by -664: 01 [93c13ebd] (014/198) Accurately ripped 02 [c1396dfa] (014/198) Accurately ripped 03 [c4b650d7] (014/196) Accurately ripped 04 [11a72a18] (014/197) Accurately ripped 05 [494ff640] (014/202) Accurately ripped 06 [d180b36c] (014/201) Accurately ripped 07 [86a9da94] (014/201) Accurately ripped 08 [6b3001ce] (014/200) Accurately ripped 09 [f1047f4d] (014/201) Accurately ripped 10 [2de70148] (014/203) Accurately ripped 11 [83194ec5] (014/202) Accurately rippedOffsetted by -384: 01 [04979393] (019/198) Accurately ripped 02 [89e78f5c] (019/198) Accurately ripped 03 [e5f1a43f] (019/196) Accurately ripped 04 [5a347fa7] (019/197) Accurately ripped 05 [254c3e29] (019/202) Accurately ripped 06 [a6c31364] (019/201) Accurately ripped 07 [fd0ce718] (019/201) Accurately ripped 08 [b3394354] (019/200) Accurately ripped 09 [4d454fc9] (019/201) Accurately ripped 10 [ada1e894] (019/203) Accurately ripped 11 [db92cc77] (019/202) Accurately rippedOffsetted by 1824: 01 [3da41028] (014/198) Accurately ripped 02 [5fc08f7a] (014/198) Accurately ripped 03 [86790403] (014/196) Accurately ripped 04 [44ede6a7] (014/197) Accurately ripped 05 [daf58ebb] (014/202) Accurately ripped 06 [e4bff542] (014/201) Accurately ripped 07 [e7f4be71] (014/201) Accurately ripped 08 [3ccc5663] (014/200) Accurately ripped 09 [cf86969f] (013/201) Accurately ripped 10 [19ebea56] (014/203) Accurately ripped 11 [2f9c8628] (014/202) Accurately rippedOffsetted by -1345: 01 [f736edbc] (000/198) No match (V2 was not tested) 02 [f23e3ab9] (000/198) No match (V2 was not tested) 03 [ddd4deb1] (000/196) No match (V2 was not tested) 04 [51d1561a] (000/197) No match (V2 was not tested) 05 [5bacefe1] (000/202) No match (V2 was not tested) 06 [d22e0fbd] (000/201) No match (V2 was not tested) 07 [ce4565db] (000/201) No match (V2 was not tested) 08 [833b247c] (000/200) No match (V2 was not tested) 09 [3690ceb5] (000/201) No match (V2 was not tested) 10 [3f6f6a32] (000/203) No match (V2 was not tested) 11 [53d28c79] (000/202) No match (V2 was not tested)
    Track Peak [ CRC32 ] [W/O NULL] [ LOG ] -- 99,9 [96F53DB0] [0B82B946] 01 99,9 [404D4F01] [B7DF26DB] CRC32 02 99,9 [68617832] [D78C08F4] CRC32 03 85,2 [9F111445] [FE74C497] CRC32 04 98,0 [EF76416B] [42B9D1D1] CRC32 05 90,4 [2AE5A3C1] [8DE3B202] CRC32 06 49,9 [2B694057] [AD85E894] CRC32 07 83,1 [C0EE054A] [ED9A07D9] CRC32 08 41,9 [C1B49410] [6CCEDB39] CRC32 09 32,5 [19A5E533] [D02BBBB6] CRC32 10 65,0 [37632D71] [DDFC00C3] CRC32 11 88,3 [08D75EAF] [A1C3C9DE] CRC32

    CUE sheetsCD 1: Klavierkonzert Nr. 1

    TITLE "Johannes Brahms: Die Klavierkonzerte • Fantasien, Op. 116"PERFORMER "Emil Gilels"REM GENRE ClassicalREM DISCID 220C1F03REM COMMENT "ExactAudioCopy v0.99pb5"FILE "01 - Klavierkonzert Nr. 1 d-moll, Op. 15 - I. Maestoso.flac" WAVE TRACK 01 AUDIO TITLE "Klavierkonzert Nr. 1 d-moll, Op. 15: I. Maestoso" PERFORMER "Emil Gilels (piano), Berliner Philharmoniker. Eugen Jochum, conductor" REM DATE 1972 PREGAP 00:00:32 INDEX 01 00:00:00FILE "02 - Klavierkonzert Nr. 1 d-moll, Op. 15 - II. Adagio.flac" WAVE TRACK 02 AUDIO TITLE "Klavierkonzert Nr. 1 d-moll, Op. 15: II. Adagio" PERFORMER "Emil Gilels (piano), Berliner Philharmoniker. Eugen Jochum, conductor" REM DATE 1972 INDEX 01 00:00:00FILE "03 - Klavierkonzert Nr. 1 d-moll, Op. 15 - III. Rondo. Allegro non troppo.flac" WAVE TRACK 03 AUDIO TITLE "Klavierkonzert Nr. 1 d-moll, Op. 15: III. Rondo: Allegro non troppo" PERFORMER "Emil Gilels (piano), Berliner Philharmoniker. Eugen Jochum, conductor" REM DATE 1972 INDEX 01 00:00:00

    CD 2: Klavierkonzert Nr. 2 • Fantasien, Op. 116

    TITLE "Johannes Brahms: Die Klavierkonzerte • Fantasien, Op. 116"PERFORMER "Emil Gilels"REM GENRE ClassicalREM DISCID 9C11410BREM COMMENT "ExactAudioCopy v0.99pb5"FILE "01 - Klavierkonzert Nr. 2 B-dur, Op. 83 - I. Allegro non troppo.flac" WAVE TRACK 01 AUDIO TITLE "Klavierkonzert Nr. 2 B-dur, Op. 83: I. Allegro non troppo" PERFORMER "Emil Gilels (piano), Berliner Philharmoniker. Eugen Jochum, conductor" REM DATE 1972 PREGAP 00:00:32 INDEX 01 00:00:00FILE "02 - Klavierkonzert Nr. 2 B-dur, Op. 83 - II. Allegro appassionato.flac" WAVE TRACK 02 AUDIO TITLE "Klavierkonzert Nr. 2 B-dur, Op. 83: II. Allegro appassionato" PERFORMER "Emil Gilels (piano), Berliner Philharmoniker. Eugen Jochum, conductor" REM DATE 1972 INDEX 01 00:00:00FILE "03 - Klavierkonzert Nr. 2 B-dur, Op. 83 - III. Andante.flac" WAVE TRACK 03 AUDIO TITLE "Klavierkonzert Nr. 2 B-dur, Op. 83: III. Andante" PERFORMER "Emil Gilels (piano), Ottomar Borwitzky (cello), Berliner Philharmoniker. Eugen Jochum, conductor" REM DATE 1972 INDEX 01 00:00:00FILE "04 - Klavierkonzert Nr. 2 B-dur, Op. 83 - IV. Allegretto grazioso.flac" WAVE TRACK 04 AUDIO TITLE "Klavierkonzert Nr. 2 B-dur, Op. 83: IV. Allegretto grazioso" PERFORMER "Emil Gilels (piano), Berliner Philharmoniker. Eugen Jochum, conductor" REM DATE 1972 INDEX 01 00:00:00 TRACK 05 AUDIO TITLE "7 Fantasien, Op. 116: Nr. 1. Capriccio d-moll" PERFORMER "Emil Gilels (piano)" REM DATE 1975 INDEX 00 09:47:00FILE "05 - 7 Fantasien, Op. 116 - Nr. 1. Capriccio d-moll.flac" WAVE INDEX 01 00:00:00FILE "06 - 7 Fantasien, Op. 116 - Nr. 2. Intermezzo a-moll.flac" WAVE TRACK 06 AUDIO TITLE "7 Fantasien, Op. 116: Nr. 2. Intermezzo a-moll" PERFORMER "Emil Gilels (piano)" REM DATE 1975 INDEX 01 00:00:00FILE "07 - 7 Fantasien, Op. 116 - Nr. 3. Capriccio g-moll.flac" WAVE TRACK 07 AUDIO TITLE "7 Fantasien, Op. 116: Nr. 3. Capriccio g-moll" PERFORMER "Emil Gilels (piano)" REM DATE 1975 INDEX 01 00:00:00FILE "08 - 7 Fantasien, Op. 116 - Nr. 4. Intermezzo E-dur.flac" WAVE TRACK 08 AUDIO TITLE "7 Fantasien, Op. 116: Nr. 4. Intermezzo E-dur" PERFORMER "Emil Gilels (piano)" REM DATE 1975 INDEX 01 00:00:00FILE "09 - 7 Fantasien, Op. 116 - Nr. 5. Intermezzo e-moll.flac" WAVE TRACK 09 AUDIO TITLE "7 Fantasien, Op. 116: Nr. 5. Intermezzo e-moll" PERFORMER "Emil Gilels (piano)" REM DATE 1975 INDEX 01 00:00:00FILE "10 - 7 Fantasien, Op. 116 - Nr. 6. Intermezzo E-dur.flac" WAVE TRACK 10 AUDIO TITLE "7 Fantasien, Op. 116: Nr. 6. Intermezzo E-dur" PERFORMER "Emil Gilels (piano)" REM DATE 1975 INDEX 01 00:00:00FILE "11 - 7 Fantasien, Op. 116 - Nr. 7. Capriccio d-moll.flac" WAVE TRACK 11 AUDIO TITLE "7 Fantasien, Op. 116: Nr. 7. Capriccio d-moll" PERFORMER "Emil Gilels (piano)" REM DATE 1975 INDEX 01 00:00:00
    [teatrix.ru].t9645.torrent 
    Торрент: Зарегистрирован [ 2015-10-23 17:11 ] · 89E9E3365427EAF29323060C46FA09EB655D1125

    Скачать .torrent

    Скачать

    23 KB

    Статус: проверено
    Скачан: 1 раз
    Размер: 498 MB
    terms.php



  • Быстрый ответ

    Имя:

          
    Для отправки сообщений необходимо включить JavaScript
    Показать сообщения:    

    Текущее время: 05-Дек 17:33

    Часовой пояс: UTC + 3


    Вы можете начинать темы
    Вы можете отвечать на сообщения
    Вы не можете редактировать свои сообщения
    Вы не можете удалять свои сообщения
    Вы не можете голосовать в опросах
    Вы не можете прикреплять файлы к сообщениям
    Вы можете скачивать файлы