(Classical) Gidon Kremer - New Seasons [Philip Glass - Violin Concerto No.2, Arvo Part - Estonian Lullaby, Гия Канчели - Ex contrario, Shigeru Umebayashi - Yumeji's Theme] - 2015, FLAC (image+.cue) lossless


Статистика раздачи [Обновить пиров]
Размер:  342 MB   |    Зарегистрирован:  1 год 1 месяц   |    Скачан:  0 раз

Полного источника не было: Никогда

Личеров:  3  [  0 KB/s  ]   Подробная статистика пиров
 
   
 
 
 

[Цитировать]

Gidon Kremer - New Seasons
Жанр: Classical
Страна-производитель диска: Germany
Год издания диска: 2015
Издатель (лейбл): Deutsche Grammophon
Номер по каталогу: 479 4817 |G|H|
Дата записи: II.2013 & IX.2014**
Аудиокодек: FLAC
Тип рипа: image+.cue
Битрейт аудио: lossless
Продолжительность: 1:17'43"
Источник: собственный рип
Наличие сканов в содержимом раздачи: да
Треклист:
Philip Glass - Violin Concerto No.2 'The American Four Seasons'*
01. I. Prologue
02. II. Movement I
03. III. Song No.1
04. IV. Movement II
05. V. Song No.2
06. VI. Movement III
07. VII. Song No.3
08. VIII. Movement IV
Arvo Part
09. Estonian Lullaby**
Гия Канчели
10. Ex contrario***
Shigeru Umebayashi
11. Yumeji's Theme (from the 'Mood of love')
Исполнители:
Gidon Kremer, violin
Андрей Пушкарёв, keyboard* ***
Giedre Dirvanauskaite, cello***
Girls' Choir of the Vilnius Choir-Singing School 'Liepaites'**
Kremerata Baltica-

Лог создания рипа

Exact Audio Copy V1.0 beta 4 from 7. December 2014
EAC extraction logfile from 7. July 2015, 22:35
Gidon Kremer / New Seasons
Used drive : TSSTcorpDVDWBD TS-LB23A Adapter: 1 ID: 0
Read mode : SecureUtilize accurate stream : YesDefeat audio cache : YesMake use of C2 pointers : No
Read offset correction : 6Overread into Lead-In and Lead-Out : NoFill up missing offset samples with silence : YesDelete leading and trailing silent blocks : NoNull samples used in CRC calculations : YesUsed interface : Native Win32 interface for Win NT & 2000
Used output format : User Defined EncoderSelected bitrate : 128 kBit/sQuality : HighAdd ID3 tag : YesCommand line compressor : C:\Program Files (x86)\Exact Audio Copy\Flac\flac.exeAdditional command line options : -T "COMMENT=Ripped by GFox" -V -8 %source%
TOC of the extracted CD
Track | Start | Length | Start sector | End sector --------------------------------------------------------- 1 | 0:00.00 | 1:38.11 | 0 | 7360 2 | 1:38.11 | 6:27.59 | 7361 | 36444 3 | 8:05.70 | 4:05.54 | 36445 | 54873 4 | 12:11.49 | 11:13.21 | 54874 | 105369 5 | 23:24.70 | 2:29.34 | 105370 | 116578 6 | 25:54.29 | 6:18.54 | 116579 | 144982 7 | 32:13.08 | 2:49.67 | 144983 | 157724 8 | 35:03.00 | 7:05.14 | 157725 | 189613 9 | 42:08.14 | 2:11.18 | 189614 | 199456 10 | 44:19.32 | 29:58.61 | 199457 | 334367 11 | 74:18.18 | 3:25.11 | 334368 | 349753
Range status and errors
Selected range
Filename D:\Downloads\Gidon Kremer - New Seasons.wav
Peak level 95.4 % Extraction speed 2.0 X Range quality 100.0 % Test CRC 16CEDF03 Copy CRC 16CEDF03 Copy OK
No errors occurred
AccurateRip summary
Track 1 not present in databaseTrack 2 not present in databaseTrack 3 not present in databaseTrack 4 not present in databaseTrack 5 not present in databaseTrack 6 not present in databaseTrack 7 not present in databaseTrack 8 not present in databaseTrack 9 not present in databaseTrack 10 not present in databaseTrack 11 not present in database
None of the tracks are present in the AccurateRip database
End of status report
==== Log checksum 7155BD35985F67D8C81DB60C5195258494128AC15962238184393CBEDC914326 ====
-Доп. информация: Первый за много лет сольный диск Гидона Кремера содержит долгожданную запись эпического Второго скрипичного концерта Гласса "Американские времена года", а также сочинения с солирующей скрипкой Пярта, Канчели и Умебаяси.
[teatrix.ru].t9646.torrent 
Торрент: Зарегистрирован [ 2015-10-23 17:11 ] · CC01387E6D0AFFF7C6BCA560581E33C1B75A0FEC

Скачать .torrent

Скачать

14 KB

Статус: проверено
Скачан: 0 раз
Размер: 342 MB
terms.php



Быстрый ответ

Имя:

      
Для отправки сообщений необходимо включить JavaScript
Показать сообщения:    

Текущее время: 08-Дек 11:00

Часовой пояс: UTC + 3


Вы можете начинать темы
Вы можете отвечать на сообщения
Вы не можете редактировать свои сообщения
Вы не можете удалять свои сообщения
Вы не можете голосовать в опросах
Вы не можете прикреплять файлы к сообщениям
Вы можете скачивать файлы