(Classical) Томашек – Два фортепианных концерта / Tomasek – Piano concertos Nos. 1 & 2 (Jan Simon, Prague Radio Symphony Orchestra, Vladimir Valek) - 2006, FLAC (image+.cue) lossless


Статистика раздачи [Обновить пиров]
Размер:  227 MB   |    Зарегистрирован:  1 год 1 месяц   |    Скачан:  0 раз

Полного источника не было: Никогда

Личеров:  4  [  0 KB/s  ]   Подробная статистика пиров
 
   
 
 
 

[Цитировать]

Томашек – Два фортепианных концерта / Tomášek – Piano concertos Nos. 1 & 2 (Jan Simon, Prague Radio Symphony Orchestra, Vladimír Válek)
Жанр: Classical
Страна-производитель диска: Чехия
Год издания диска: 2006
Издатель (лейбл): Supraphon
Номер по каталогу: SU 3819-2
Дата записи: 21 — 23 марта 2005 г. (№ 1), 21 — 23 марта и 5 апреля 2006 г. (№ 2), Прага.
Аудиокодек: FLAC
Тип рипа: image+.cue
Битрейт аудио: lossless
Продолжительность: 00:53:33
Источник: odeonmusic
Наличие сканов в содержимом раздачи: да
Треклист:-Вацлав Ян Крштитель Томашек (1774 — 1850).-Фортепианный концерт № 1 C-dur, op. 18 (ок. 1803 — 1805, опубл. ок. 1805).
01. I. Allegro con brio [10:32].
02. II. Tranquillo [06:12].
03. III. Rondo [07:15].
Фортепианный концерт № 2 Es-dur, op. 20 (ок. 1803 — 1805).
04. I. Allegro con brio [14:03].
05. II. Adagio ma non troppo [07:05].
06. III. Allegro assai [07:57].-Исполнители:
Jan Simon (фортепиано).
Prague Radio Symphony Orchestra.
Дирижер Vladimír Válek.-

Лог создания рипа

Exact Audio Copy V1.0 beta 3 from 29. August 2011
EAC extraction logfile from 25. March 2013, 12:00
Jan Simon / Václav Jan Tomásek - Piano Concertos Nos.1 & 2 - Jan Simon
Used drive : TSSTcorpCDDVDW SH-222BB Adapter: 2 ID: 1
Read mode : SecureUtilize accurate stream : YesDefeat audio cache : YesMake use of C2 pointers : No
Read offset correction : 6Overread into Lead-In and Lead-Out : NoFill up missing offset samples with silence : YesDelete leading and trailing silent blocks : NoNull samples used in CRC calculations : YesUsed interface : Native Win32 interface for Win NT & 2000
Used output format : User Defined EncoderSelected bitrate : 1024 kBit/sQuality : HighAdd ID3 tag : NoCommand line compressor : C:\Program Files\Exact Audio Copy\Flac\flac.exeAdditional command line options : -8 -V -T "TITLE=%title%" -T "ARTIST=%artist%" -T "ALBUMARTIST=%albumartist%" -T "ALBUM=%albumtitle%" -T "DATE=%year%" -T "TRACKNUMBER=%tracknr%" -T "TRACKTOTAL=%numtracks%" -T "GENRE=%genre%" -T "COMMENT=%comment%" -T "PERFORMER=%albuminterpret%" -T "COMPOSER=%composer%" %source% -o %dest%
TOC of the extracted CD
Track | Start | Length | Start sector | End sector --------------------------------------------------------- 1 | 0:00.00 | 10:37.30 | 0 | 47804 2 | 10:37.30 | 6:15.29 | 47805 | 75958 3 | 16:52.59 | 7:25.43 | 75959 | 109376 4 | 24:18.27 | 14:06.29 | 109377 | 172855 5 | 38:24.56 | 7:08.41 | 172856 | 204996 6 | 45:33.22 | 7:57.52 | 204997 | 240823
Range status and errors
Selected range
Filename G:\Ripped general\[4553] Tomasek – Piano Concertos Nos.1 & 2 – Jan Simon\Václav Jan Tomásek - Piano Concertos Nos.1 & 2 - Jan Simon.wav
Peak level 96.5 % Extraction speed 7.0 X Range quality 100.0 % Test CRC CDA1428E Copy CRC CDA1428E Copy OK
No errors occurred
AccurateRip summary
Track 1 accurately ripped (confidence 4) [39E8E17D] (AR v1)Track 2 accurately ripped (confidence 4) [7E878F43] (AR v1)Track 3 accurately ripped (confidence 4) [CAE65C5C] (AR v1)Track 4 accurately ripped (confidence 4) [5FF8FDD2] (AR v1)Track 5 accurately ripped (confidence 4) [6C4AFD37] (AR v1)Track 6 accurately ripped (confidence 4) [84E3947B] (AR v1)
All tracks accurately ripped
End of status report

Содержание индексной карты (.CUE)

REM GENRE ClassicalREM DATE 2006REM DISCID 410C8A06REM COMMENT "ExactAudioCopy v1.0b3"PERFORMER "Jan Simon & Vladimir Valek"TITLE "Tomasek – Piano concertos – Jan Simon & Vladimir Valek"FILE "Tomasek – Piano concertos – Jan Simon & Vladimir Valek.flac" WAVE TRACK 01 AUDIO TITLE "Piano concerto No. 1 in C major, Op. 18 - I. Allegro con brio" PERFORMER "Jan Simon & Vladimir Valek" INDEX 01 00:00:00 TRACK 02 AUDIO TITLE "Piano concerto No. 1 in C major, Op. 18 - II. Tranquillo" PERFORMER "Jan Simon & Vladimir Valek" INDEX 00 10:32:00 INDEX 01 10:37:30 TRACK 03 AUDIO TITLE "Piano concerto No. 1 in C major, Op. 18 - III. Rondo" PERFORMER "Jan Simon & Vladimir Valek" INDEX 00 16:49:46 INDEX 01 16:52:59 TRACK 04 AUDIO TITLE "Piano concerto No. 2 in E flat major, Op. 20 - I. Allegro con brio" PERFORMER "Jan Simon & Vladimir Valek" INDEX 00 24:08:57 INDEX 01 24:18:27 TRACK 05 AUDIO TITLE "Piano concerto No. 2 in E flat major, Op. 20 - II. Adagio ma non troppo" PERFORMER "Jan Simon & Vladimir Valek" INDEX 00 38:21:39 INDEX 01 38:24:56 TRACK 06 AUDIO TITLE "Piano concerto No. 2 in E flat major, Op. 20 - III. Allegro assai" PERFORMER "Jan Simon & Vladimir Valek" INDEX 00 45:30:25 INDEX 01 45:33:22

Вариант индексной карты (.CUE) с убранными зазорами

REM GENRE ClassicalREM DATE 2006REM DISCID 410C8A06REM COMMENT "ExactAudioCopy v1.0b3"PERFORMER "Jan Simon & Vladimir Valek"TITLE "Tomasek – Piano concertos – Jan Simon & Vladimir Valek"FILE "Tomasek – Piano concertos – Jan Simon & Vladimir Valek.flac" WAVE TRACK 01 AUDIO TITLE "Piano concerto No. 1 in C major, Op. 18 - I. Allegro con brio" PERFORMER "Jan Simon & Vladimir Valek" INDEX 01 00:00:00 TRACK 02 AUDIO TITLE "Piano concerto No. 1 in C major, Op. 18 - II. Tranquillo" PERFORMER "Jan Simon & Vladimir Valek" INDEX 01 10:37:30 TRACK 03 AUDIO TITLE "Piano concerto No. 1 in C major, Op. 18 - III. Rondo" PERFORMER "Jan Simon & Vladimir Valek" INDEX 01 16:52:59 TRACK 04 AUDIO TITLE "Piano concerto No. 2 in E flat major, Op. 20 - I. Allegro con brio" PERFORMER "Jan Simon & Vladimir Valek" INDEX 00 24:09:71 INDEX 01 24:18:27 TRACK 05 AUDIO TITLE "Piano concerto No. 2 in E flat major, Op. 20 - II. Adagio ma non troppo" PERFORMER "Jan Simon & Vladimir Valek" INDEX 01 38:24:56 TRACK 06 AUDIO TITLE "Piano concerto No. 2 in E flat major, Op. 20 - III. Allegro assai" PERFORMER "Jan Simon & Vladimir Valek" INDEX 01 45:33:22
[teatrix.ru].t9647.torrent 
Торрент: Зарегистрирован [ 2015-10-23 17:11 ] · 7D1EA255BE77FAF660765030639293D525E9DA91

Скачать .torrent

Скачать

19 KB

Статус: проверено
Скачан: 0 раз
Размер: 227 MB
terms.php



Быстрый ответ

Имя:

      
Для отправки сообщений необходимо включить JavaScript
Показать сообщения:    

Текущее время: 04-Дек 02:56

Часовой пояс: UTC + 3


Вы можете начинать темы
Вы можете отвечать на сообщения
Вы не можете редактировать свои сообщения
Вы не можете удалять свои сообщения
Вы не можете голосовать в опросах
Вы не можете прикреплять файлы к сообщениям
Вы можете скачивать файлы