(Violin) Русская исполнительская школа 10 - Давид Ойстрах - (Johann Sebastian Bach, Arcangelo Corelli, Franciszek Schubert, Fritz Kreisler, Петр Ильич Чайковский) - 2010, FLAC (image+.cue) lossless


Статистика раздачи [Обновить пиров]
Размер:  330 MB   |    Зарегистрирован:  1 год 1 месяц   |    Скачан:  0 раз

Полного источника не было: Никогда

Личеров:  3  [  0 KB/s  ]   Подробная статистика пиров
 
   
 
 
 

[Цитировать]

Русская исполнительская школа 10 - Давид Ойстрах - (Johann Sebastian Bach, Arcangelo Corelli, Franciszek Schubert, Fritz Kreisler, Пётр Ильич Чайковский)
Жанр: Violin
Страна-производитель диска: Россия
Год издания диска: 2010
Издатель (лейбл): Из собрания Гостелерадиофонда
Аудиокодек: FLAC
Тип рипа: image+.cue
Битрейт аудио: lossless
Продолжительность: 01:13:18
Источник: собственный рип
Наличие сканов в содержимом раздачи: да
Треклист:
1. Fritz Kreisler - Вальс "Муки любви"
Давид Ойстрах (скрипка)
2. Франц Шуберт - Вальс-каприс
Давид Ойстрах (скрипка) и Фрида Бауэр (фортепьяно)
3. Франц Шуберт - Андантино
Давид Ойстрах (скрипка) и Святослав Рихтер (фортепьяно)
4. Иоганн Себастьян Бах - Концерт для двух скрипок с оркестром (3 части)
Давид Ойстрах (скрипка), Игорь Ойстрах (скрипка) и Камерный оркестр Московской Государственной филармонии. Дирижер - Давид Ойстрах
5. Арканджело Корелли - Кончерто-гроссо (3 части)
Камерный оркестр Московской Государственной филармонии. Дирижер - Давид Ойстрах
6. Петр Ильич Чайковский - Концерт для скрипки с оркестром ре мажор, соч. 35 (3 части)
Давид Ойстрах (скрипка) и Академический симфонический оркестр Московской Государственной филармонии. Дирижер - Геннадий Рождественский
Исполнители:
Давид Ойстрах
2. Фрида Бауэр (фортепьяно)
3. Святослав Рихтер (фортепьяно)
4. Игорь Ойстрах (скрипка)
4,5. Камерный оркестр Московской Государственной филармонии. Дирижер - Давид Ойстрах.
6.Академический симфонический оркестр Московской Государственной филармонии. Дирижер - Геннадий Рождественский.

Лог создания рипа

Exact Audio Copy V1.0 beta 6 from 9. April 2015
Отчёт EAC об извлечении, выполненном 1. июля 2015, 23:09
- / Русская Исполнительская Школа
Дисковод: ASUS DRW-24B5ST Adapter: 1 ID: 0
Режим чтения : ДостоверностьИспользование точного потока : ДаОтключение кэша аудио : ДаИспользование указателей C2 : Нет
Коррекция смещения при чтении : 6Способность читать области Lead-in и Lead-out : НетЗаполнение пропущенных сэмплов тишиной : ДаУдаление блоков с тишиной в начале и конце : НетПри вычислениях CRC использовались нулевые сэмплы : ДаИнтерфейс : Встроенный Win32-интерфейс для Win NT/2000
Выходной формат : Пользовательский кодировщикВыбранный битрейт : 128 kBit/sКачество : ВысокийДобавление ID3-тега : НетУтилита сжатия : C:\Program Files (x86)\Exact Audio Copy\flac-1.3.1-win\win64\flac.exeДополнительные параметры : -V -8 -T "Date=%year%" -T "Genre=%genre%" %source%
TOC извлечённого CD
Трек | Старт | Длительность | Начальный сектор | Конечный сектор --------------------------------------------------------------------- 1 | 0:00.00 | 3:34.54 | 0 | 16103 2 | 3:34.54 | 4:34.19 | 16104 | 36672 3 | 8:08.73 | 3:55.72 | 36673 | 54369 4 | 12:04.70 | 3:59.31 | 54370 | 72325 5 | 16:04.26 | 7:09.30 | 72326 | 104530 6 | 23:13.56 | 4:59.15 | 104531 | 126970 7 | 28:12.71 | 3:57.60 | 126971 | 144805 8 | 32:10.56 | 3:25.43 | 144806 | 160223 9 | 35:36.24 | 3:18.29 | 160224 | 175102 10 | 38:54.53 | 18:44.02 | 175103 | 259404 11 | 57:38.55 | 5:59.44 | 259405 | 286373 12 | 63:38.24 | 9:39.19 | 286374 | 329817
Характеристики диапазона извлечения и сообщения об ошибках
Выбранный диапазон
Имя файла C:\Users\Тарик\Music\Давид Ойстрах\Русская Исполнительская Школа.wav
Подозрительная позиция 1:11:22 Подозрительная позиция 1:11:39 - 1:11:41
Пиковый уровень 98.8 % Скорость извлечения 2.5 X Качество диапазона 99.7 % CRC теста 23199AE1 CRC копии B79C8095 Копирование завершено
Были ошибки
Конец отчёта
==== Контрольная сумма отчёта 5F90236C56DCB953C78B3208DA0FCFCF0B4A9CA628A9C41EA9CEB8DA1BDF8886 ====

Содержание индексной карты (.CUE)

REM GENRE ClassicalREM DATE 2010REM DISCID A7112D0CREM COMMENT "ExactAudioCopy v1.0b6"PERFORMER ""TITLE "Русская Исполнительская Школа 10"FILE "Русская Исполнительская Школа 10.flac" WAVE TRACK 01 AUDIO TITLE "Вальс 'Муки любви'" PERFORMER "Давид Ойстрах" FLAGS DCP INDEX 01 00:00:00 TRACK 02 AUDIO TITLE "Вальс-каприс" PERFORMER "Давид Ойстрах" FLAGS DCP INDEX 01 03:34:54 TRACK 03 AUDIO TITLE "Андантино" PERFORMER "Давид Ойстрах" FLAGS DCP INDEX 01 08:08:73 TRACK 04 AUDIO TITLE "Концерт для двух скрипок с оркестром ч.1" PERFORMER "Давид Ойстрах" FLAGS DCP INDEX 01 12:04:70 TRACK 05 AUDIO TITLE "Концерт для двух скрипок с оркестром ч.2" PERFORMER "Давид Ойстрах" FLAGS DCP INDEX 01 16:04:26 TRACK 06 AUDIO TITLE "Концерт для двух скрипок с оркестром ч.3" PERFORMER "Давид Ойстрах" FLAGS DCP INDEX 01 23:13:56 TRACK 07 AUDIO TITLE "Кончерто-гроссо ч.1" PERFORMER "Давид Ойстрах" FLAGS DCP INDEX 01 28:12:71 TRACK 08 AUDIO TITLE "Кончерто-гроссо ч.2" PERFORMER "Давид Ойстрах" FLAGS DCP INDEX 01 32:10:56 TRACK 09 AUDIO TITLE "Кончерто-гроссо ч.3" PERFORMER "Давид Ойстрах" FLAGS DCP INDEX 01 35:36:24 TRACK 10 AUDIO TITLE "Концерт для скрипки с оркестром ре мажор, соч. 35 ч.1" PERFORMER "Давид Ойстрах" FLAGS DCP INDEX 01 38:54:53 TRACK 11 AUDIO TITLE "Концерт для скрипки с оркестром ре мажор, соч. 35 ч.2" PERFORMER "Давид Ойстрах" FLAGS DCP INDEX 01 57:38:55 TRACK 12 AUDIO TITLE "Концерт для скрипки с оркестром ре мажор, соч. 35 ч.3" PERFORMER "Давид Ойстрах" FLAGS DCP INDEX 01 63:38:24

Лог проверки качества

AUDIOCHECKER v2.0 beta (build 457) - by Dester - opdester@freemail.hu~~~~~~~~~~~~~~~~~~~~~~~~~~~~~~~~~~
Started at: вторник, 23. 06. 2015. - 10:49.0669 files found
01 -===- C:\Users\Тарик\Music\Grigory Sokolov - Complete Recordings\Bach\G. Sokolo-----------------------------------------------------------
Started at: вторник, 23. 06. 2015. - 10:51.491 file found
1 -===- C:\Users\Тарик\Music\Русский праздник\Russian Celebration.flac Extracted successfully Conclusion: this track is CDDA with probability 100% Tempfile successfully deleted.
Finished at: вторник, 23. 06. 2015. - 10:53.46 (operation time: 0:01.57)
-----------------------------------------------------------
Started at: вторник, 23. 06. 2015. - 16:58.291 file found
1 -===- C:\Users\Тарик\Music\Лена Семенова Первая премия Первого Московского конкурса скрипачей имени Паганини\Lena_Semenova.flac Extracted successfully Conclusion: this track is MPEG with probability 90% Tempfile successfully deleted.
Finished at: вторник, 23. 06. 2015. - 17:01.00 (operation time: 0:02.30)
-----------------------------------------------------------
Started at: вторник, 23. 06. 2015. - 17:15.301 file found
1 -===- C:\Users\Тарик\Music\Лена Семёнова Первая премия Первого Московского конкурса скрипачей имени Паганини\Lena_Semenova.flac Extracted successfully Conclusion: this track is MPEG with probability 90% Tempfile successfully deleted.
Finished at: вторник, 23. 06. 2015. - 17:17.45 (operation time: 0:02.14)
-----------------------------------------------------------
Started at: вторник, 23. 06. 2015. - 17:18.411 file found
1 -===- C:\Users\Тарик\Music\Лена Семёнова Первая премия Первого Московского конкурса скрипачей имени Паганини\Lena_Semenova.flac Extracted successfully Conclusion: this track is MPEG with probability 90% Tempfile successfully deleted.
Finished at: вторник, 23. 06. 2015. - 17:20.57 (operation time: 0:02.15)
-----------------------------------------------------------
Started at: вторник, 23. 06. 2015. - 17:23.131 file found
1 -===- C:\Users\Тарик\Music\Лена Семёнова Первая премия Первого Московского конкурса скрипачей имени Паганини\Lena_Semenova.flac Extracted successfully Conclusion: this track is MPEG with probability 90% Tempfile successfully deleted.
Finished at: вторник, 23. 06. 2015. - 17:25.28 (operation time: 0:02.14)
-----------------------------------------------------------
Started at: вторник, 23. 06. 2015. - 17:35.291 file found
1 -===- C:\Users\Тарик\Music\Концерт лауреатов и членов Жюри Первого Московского конкурса скрипачей имени Паганини\Concert_of_prizewinners_and_Jury_members.flac Extracted successfully Conclusion: this track is CDDA with probability 100% Tempfile successfully deleted.
Finished at: вторник, 23. 06. 2015. - 17:38.29 (operation time: 0:02.59)
-----------------------------------------------------------
Started at: вторник, 23. 06. 2015. - 20:01.161 file found
1 -===- C:\Users\Тарик\Music\Лена Семёнова Первая премия Первого Московского конкурса скрипачей имени Паганини\Лена Семёнова - Первый Московский конкурс скрипачей имени паганини.flac Extracted successfully Conclusion: this track is MPEG with probability 91% Tempfile successfully deleted.
Finished at: вторник, 23. 06. 2015. - 20:03.45 (operation time: 0:02.29)
-----------------------------------------------------------
Started at: вторник, 23. 06. 2015. - 20:05.181 file found
1 -===- C:\Users\Тарик\Music\Лена Семёнова Первая премия Первого Московского конкурса скрипачей имени Паганини\Лена Семёнова - Первый Московский конкурс скрипачей имени паганини.flac Extracted successfully Conclusion: this track is MPEG with probability 91% Tempfile successfully deleted.
Finished at: вторник, 23. 06. 2015. - 20:07.42 (operation time: 0:02.23)
-----------------------------------------------------------
Started at: вторник, 23. 06. 2015. - 22:29.431 file found
1 -===- C:\Users\Тарик\Music\Концерт лауреатов и членов Жюри Первого Московского конкурса скрипачей имени Паганини\Концерт лауреатов и членов жюри Первого Московского конкурса скрипачей им. Паганини.flac Extracted successfully Conclusion: this track is CDDA with probability 100% Tempfile successfully deleted.
Finished at: вторник, 23. 06. 2015. - 22:32.41 (operation time: 0:02.58)
-----------------------------------------------------------
Started at: среда, 24. 06. 2015. - 9:44.511 file found
1 -===- C:\Users\Тарик\Music\Георгий Свиридов\Романтическая классика\Георгий Свиридов Романтическая Классика.flac Extracted successfully Conclusion: this track is CDDA with probability 100% Tempfile successfully deleted.
Finished at: среда, 24. 06. 2015. - 9:48.01 (operation time: 0:03.09)
-----------------------------------------------------------
Started at: среда, 24. 06. 2015. - 18:05.181 file found
1 -===- C:\Users\Тарик\Music\Концерт лауреатов и членов Жюри Первого Московского конкурса скрипачей имени Паганини\Концерт лауреатов и членов жюри Первого Московского конкурса скрипачей им. Паганини.flac Extracted successfully Conclusion: this track is CDDA with probability 100% Tempfile successfully deleted.
Finished at: среда, 24. 06. 2015. - 18:08.39 (operation time: 0:03.20)
-----------------------------------------------------------
Started at: среда, 01. 07. 2015. - 23:10.361 file found
1 -===- C:\Users\Тарик\Music\Давид Ойстрах\Русская Исполнительская Школа.flac Extracted successfully Conclusion: this track is CDDA with probability 100% Tempfile successfully deleted.
Finished at: среда, 01. 07. 2015. - 23:13.20 (operation time: 0:02.43)
[teatrix.ru].t9649.torrent 
Торрент: Зарегистрирован [ 2015-10-23 17:11 ] · DAD18F37E7638A9642EAB618FCC177F7812329A4

Скачать .torrent

Скачать

14 KB

Статус: проверено
Скачан: 0 раз
Размер: 330 MB
terms.php



Быстрый ответ

Имя:

      
Для отправки сообщений необходимо включить JavaScript
Показать сообщения:    

Текущее время: 06-Дек 21:00

Часовой пояс: UTC + 3


Вы можете начинать темы
Вы можете отвечать на сообщения
Вы не можете редактировать свои сообщения
Вы не можете удалять свои сообщения
Вы не можете голосовать в опросах
Вы не можете прикреплять файлы к сообщениям
Вы можете скачивать файлы