(Classical) Luigi Boccherini - Cello Concertos; Aria Accademica - Marta Almajano, Ensemble Baroque de Limoges, Christophe Coin - 2011, FLAC (image+.cue) lossless


Статистика раздачи [Обновить пиров]
Размер:  219 MB   |    Зарегистрирован:  1 год 1 месяц   |    Скачан:  0 раз

Полного источника не было: Никогда

Личеров:  3  [  0 KB/s  ]   Подробная статистика пиров
 
   
 
 
 

[Цитировать]

Luigi Boccherini - Cello Concertos; Aria Accademica - Marta Almajano, Ensemble Baroque de Limoges, Christophe Coin
Жанр: Classical
Страна-производитель диска: France
Год издания диска: 2011
Издатель (лейбл): Naive
Номер по каталогу: E8517
Дата записи: 1993
Аудиокодек: FLAC
Тип рипа: image+.cue
Битрейт аудио: lossless
Продолжительность: 62:11
Источник: собственный рип
Наличие сканов в содержимом раздачи: да
Треклист:
Luigi Boccherini (1743-1805)
[1]-[3] Cello Concerto in B flat major, G.482
[4]-[6] Cello Concerto in G major, G.480
[7]-[9] Cello Concerto in D major, G.476
[10] Aria Accademica in B flat major 'Se d'un amor tiranno', G.557
Исполнители:
Marta Almajano soprano
Ensemble Baroque de Limoges
Christophe Coin
cello & direction

Лог создания рипа

Exact Audio Copy V1.0 beta 3 from 29. August 2011
EAC extraction logfile from 29. June 2015, 18:34
Ensemble Baroque de Limoges, Christophe Coin / Boccherini - Cello Concertos
Used drive : HL-DT-STDVDRAM GU70N Adapter: 0 ID: 0
Read mode : SecureUtilize accurate stream : YesDefeat audio cache : YesMake use of C2 pointers : No
Read offset correction : 48Overread into Lead-In and Lead-Out : NoFill up missing offset samples with silence : YesDelete leading and trailing silent blocks : NoNull samples used in CRC calculations : YesUsed interface : Native Win32 interface for Win NT & 2000
Used output format : User Defined EncoderSelected bitrate : 128 kBit/sQuality : HighAdd ID3 tag : NoCommand line compressor : C:\Program Files (x86)\Exact Audio Copy\Flac\flac.exeAdditional command line options : -V -8 -T "Date=%year%" -T "Genre=%genre%" %source%
TOC of the extracted CD
Track | Start | Length | Start sector | End sector --------------------------------------------------------- 1 | 0:00.32 | 7:56.40 | 32 | 35771 2 | 7:56.72 | 5:33.63 | 35772 | 60809 3 | 13:30.60 | 6:20.50 | 60810 | 89359 4 | 19:51.35 | 7:00.65 | 89360 | 120924 5 | 26:52.25 | 5:07.35 | 120925 | 143984 6 | 31:59.60 | 4:28.55 | 143985 | 164139 7 | 36:28.40 | 7:02.07 | 164140 | 195796 8 | 43:30.47 | 5:17.55 | 195797 | 219626 9 | 48:48.27 | 3:57.48 | 219627 | 237449 10 | 52:46.00 | 9:24.55 | 237450 | 279804
Range status and errors
Selected range
Filename C:\temp\Boccherini - Cello Concertos - Ensemble Baroque de Limoges, Coin\Boccherini - Cello Concertos.wav
Peak level 92.4 % Extraction speed 5.2 X Range quality 100.0 % Test CRC 7C989D81 Copy CRC 7C989D81 Copy OK
No errors occurred
AccurateRip summary
Track 1 accurately ripped (confidence 4) [0534660D] (AR v2)Track 2 accurately ripped (confidence 4) [0C510113] (AR v2)Track 3 accurately ripped (confidence 4) [BE422E8F] (AR v2)Track 4 accurately ripped (confidence 4) [376F127D] (AR v2)Track 5 accurately ripped (confidence 4) [40F42AA3] (AR v2)Track 6 accurately ripped (confidence 4) [79C6C8FB] (AR v2)Track 7 accurately ripped (confidence 4) [5135AEC6] (AR v2)Track 8 accurately ripped (confidence 4) [83DC9A09] (AR v2)Track 9 accurately ripped (confidence 3) [302671C0] (AR v2)Track 10 accurately ripped (confidence 3) [B64FE525] (AR v2)
All tracks accurately ripped
End of status report
==== Log checksum C6DE57785F862123BBEA5F0B73F92C7A0E2C8B0D0B6996F4B3C6E18BF7CE6A4A ====
[teatrix.ru].t9650.torrent 
Торрент: Зарегистрирован [ 2015-10-23 17:11 ] · 427D949BF47ABB9DDE7375D707518C040A5B2F9F

Скачать .torrent

Скачать

36 KB

Статус: проверено
Скачан: 0 раз
Размер: 219 MB
terms.php



Быстрый ответ

Имя:

      
Для отправки сообщений необходимо включить JavaScript
Показать сообщения:    

Текущее время: 09-Дек 02:58

Часовой пояс: UTC + 3


Вы можете начинать темы
Вы можете отвечать на сообщения
Вы не можете редактировать свои сообщения
Вы не можете удалять свои сообщения
Вы не можете голосовать в опросах
Вы не можете прикреплять файлы к сообщениям
Вы можете скачивать файлы