(Classical) Willi Boskovsky Ensemble - Wiener Bonbons, Wiener Salonmusic of Strauss • Lanner • Mayer • Stelzmuller • Payer • Schubert • Beethoven - 2002, APE (image+.cue) lossless


Статистика раздачи [Обновить пиров]
Размер:  597 MB   |    Зарегистрирован:  1 год 2 месяца   |    Скачан:  0 раз

Полного источника не было: Никогда

Личеров:  3  [  0 KB/s  ]   Подробная статистика пиров
 
   
 
 
 

[Цитировать]

Wiener Bonbons
Жанр: Classical
Страна-производитель диска: EU
Год издания диска: 2002
Издатель (лейбл): Brilliant Classics
Номер по каталогу: 99288
Дата записи: 1991
Аудиокодек: APE
Тип рипа: image+.cue
Битрейт аудио: lossless
Продолжительность: 58'55+60'40
Источник: собственный рип
Наличие сканов в содержимом раздачи: да
Треклист:
Bonbon 1
1. Chinesische Galopp - Johann Strauss sr
2. Kettenbrückenwalzer - Johann Strauss sr
3. Eisele und Beisele Sprüge - Johann Strauss sr
4. Steyrische Tänze - Josef Lanner
5. Wiener Gemühtswalzer - Johann Strauss jr
6. Brüder Halt Galopp - Josef Lanner
7. Marienwalzer - Josef Lanner
8. Salonpoka - Johann Strauss jr
9. Champagner Galopp - Johann Strauss jr
10. Der Werberwalzer - Josef Lanner
11. Cachucha Galopp - Johann Strauss sr
12. Gitana Gallop - Johann Strauss sr
13. Schnoflertanz - Johann Mayer
14. Annen Polka - Johann Strauss sr
15. Abendsterner Walzer - Josef Lanner
Bonbon 2
1. Cerrito Polka - Josef Lanner
2. Hofball Tänze - Johann Strauss sr
3. Stelzmüller Tänze - Vinzenz Stelzmüller
4. Seufzer Galopp - Johann Strauss sr
5. Neue Wiener Ländler - Josef Lanner
6. Zwei Mazurkas - Josef Lanner
7. Bajaderen Walzer - Johann Strauss sr
8. Scherz Polka - Johann Strauss jr
9. Galanterie Walzer - Hieronymus Payer
10. Malapou Galopp - Josef Lanner
11. Marienklänge Walzer - Josef Strauss
12. Hansjörgel Polka - Josef Lanner
13. Tänze Op.9 - Franz Schubert
14. Altwiener Tanz - Ludwig van Beethoven
Willi Boskovsky Ensemble
Willi Boskovsky, violin / conductor

Лог создания рипа

CD1

Exact Audio Copy V1.0 beta 6 from 9. April 2015
EAC extraction logfile from 26. June 2015, 0:16
Willi Boskovsky Ensemble / Wiener Bonbons, CD1
Used drive : TSSTcorpCDDVDW SE-208AB Adapter: 1 ID: 2
Read mode : Secure
Utilize accurate stream : Yes
Defeat audio cache : Yes
Make use of C2 pointers : No
Read offset correction : 6
Overread into Lead-In and Lead-Out : No
Fill up missing offset samples with silence : Yes
Delete leading and trailing silent blocks : No
Null samples used in CRC calculations : Yes
Used interface : Native Win32 interface for Win NT & 2000
Used output format : Monkey's Audio Lossless Encoder
Selected bitrate : High Lossless Compression
Quality : High
Add ID3 tag : Yes
Command line compressor : C:\Program Files (x86)\Exact Audio Copy\MAC\MAC.exe
TOC of the extracted CD
Track | Start | Length | Start sector | End sector
---------------------------------------------------------
1 | 0:01.00 | 1:47.46 | 75 | 8145
2 | 1:48.46 | 4:24.32 | 8146 | 27977
3 | 6:13.03 | 1:56.13 | 27978 | 36690
4 | 8:09.16 | 5:32.15 | 36691 | 61605
5 | 13:41.31 | 6:06.61 | 61606 | 89116
6 | 19:48.17 | 1:38.60 | 89117 | 96526
7 | 21:27.02 | 8:15.09 | 96527 | 133660
8 | 29:42.11 | 2:15.52 | 133661 | 143837
9 | 31:57.63 | 1:28.68 | 143838 | 150505
10 | 33:26.56 | 7:10.07 | 150506 | 182762
11 | 40:36.63 | 2:18.45 | 182763 | 193157
12 | 42:55.33 | 2:33.01 | 193158 | 204633
13 | 45:28.34 | 4:11.71 | 204634 | 223529
14 | 49:40.30 | 2:34.43 | 223530 | 235122
15 | 52:14.73 | 6:40.10 | 235123 | 265132
Range status and errors
Selected range
Filename D:\EAC\Willi Boskovsky Ensemble - Wiener Bonbons, CD1.wav
Peak level 98.8 %
Extraction speed 4.4 X
Range quality 99.9 %
Test CRC C8372CDF
Copy CRC C8372CDF
Copy OK
No errors occurred
AccurateRip summary
Track 1 accurately ripped (confidence 4) [A9E577C5] (AR v2)
Track 2 accurately ripped (confidence 4) [393AB285] (AR v2)
Track 3 accurately ripped (confidence 4) [DE5C110A] (AR v2)
Track 4 accurately ripped (confidence 4) [519262D3] (AR v2)
Track 5 accurately ripped (confidence 4) [9210F457] (AR v2)
Track 6 accurately ripped (confidence 4) [F032523D] (AR v2)
Track 7 accurately ripped (confidence 4) [DF58BCE4] (AR v2)
Track 8 accurately ripped (confidence 4) [000F50BE] (AR v2)
Track 9 accurately ripped (confidence 4) [A7425F3C] (AR v2)
Track 10 accurately ripped (confidence 4) [7219F2C1] (AR v2)
Track 11 accurately ripped (confidence 4) [1A9A472F] (AR v2)
Track 12 accurately ripped (confidence 4) [495A0825] (AR v2)
Track 13 accurately ripped (confidence 4) [99A99338] (AR v2)
Track 14 accurately ripped (confidence 4) [C68D4A28] (AR v2)
Track 15 accurately ripped (confidence 4) [6354A7B3] (AR v2)
All tracks accurately ripped
End of status report
---- CUETools DB Plugin V2.1.6
[CTDB TOCID: XO8l_Ecxy6LE6NcR70sWXlaQDzg-] disk not present in database
Submit result: XO8l_Ecxy6LE6NcR70sWXlaQDzg- has been uploaded
==== Log checksum 60BDC073F3BCF85EF9712D1B4E3C194F203D2081EE44E1C44699AB3A229F6BC5 ====

CD2

Exact Audio Copy V1.0 beta 6 from 9. April 2015
EAC extraction logfile from 26. June 2015, 0:47
Willi Boskosky Ensemble / Wiener Bonbons CD2
Used drive : TSSTcorpCDDVDW SE-208AB Adapter: 1 ID: 2
Read mode : Secure
Utilize accurate stream : Yes
Defeat audio cache : Yes
Make use of C2 pointers : No
Read offset correction : 6
Overread into Lead-In and Lead-Out : No
Fill up missing offset samples with silence : Yes
Delete leading and trailing silent blocks : No
Null samples used in CRC calculations : Yes
Used interface : Native Win32 interface for Win NT & 2000
Used output format : Monkey's Audio Lossless Encoder
Selected bitrate : High Lossless Compression
Quality : High
Add ID3 tag : Yes
Command line compressor : C:\Program Files (x86)\Exact Audio Copy\MAC\MAC.exe
TOC of the extracted CD
Track | Start | Length | Start sector | End sector
---------------------------------------------------------
1 | 0:01.00 | 2:56.24 | 75 | 13298
2 | 2:57.24 | 4:55.50 | 13299 | 35473
3 | 7:52.74 | 1:35.60 | 35474 | 42658
4 | 9:28.59 | 1:43.72 | 42659 | 50455
5 | 11:12.56 | 4:36.28 | 50456 | 71183
6 | 15:49.09 | 4:54.44 | 71184 | 93277
7 | 20:43.53 | 7:01.40 | 93278 | 124892
8 | 27:45.18 | 2:54.65 | 124893 | 138007
9 | 30:40.08 | 5:00.00 | 138008 | 160507
10 | 35:40.08 | 1:29.18 | 160508 | 167200
11 | 37:09.26 | 7:30.36 | 167201 | 200986
12 | 44:39.62 | 2:57.27 | 200987 | 214288
13 | 47:37.14 | 7:21.11 | 214289 | 247374
14 | 54:58.25 | 5:42.39 | 247375 | 273063
Range status and errors
Selected range
Filename D:\EAC\Willi Boskosky Ensemble - Wiener Bonbons CD2.wav
Peak level 98.8 %
Extraction speed 4.5 X
Range quality 100.0 %
Test CRC F8606705
Copy CRC F8606705
Copy OK
No errors occurred
AccurateRip summary
Track 1 accurately ripped (confidence 3) [479E15C2] (AR v2)
Track 2 accurately ripped (confidence 3) [F535BCDC] (AR v2)
Track 3 accurately ripped (confidence 4) [FC5EF27E] (AR v2)
Track 4 accurately ripped (confidence 4) [7920C0CB] (AR v2)
Track 5 accurately ripped (confidence 4) [F0BEEFE9] (AR v2)
Track 6 accurately ripped (confidence 4) [7A6D7701] (AR v2)
Track 7 accurately ripped (confidence 4) [C86CE04D] (AR v2)
Track 8 accurately ripped (confidence 4) [EB39BA91] (AR v2)
Track 9 accurately ripped (confidence 4) [B2A0E828] (AR v2)
Track 10 accurately ripped (confidence 4) [172FCD70] (AR v2)
Track 11 accurately ripped (confidence 4) [52523738] (AR v2)
Track 12 accurately ripped (confidence 4) [CEA08C79] (AR v2)
Track 13 accurately ripped (confidence 4) [705F6F5D] (AR v2)
Track 14 accurately ripped (confidence 4) [7F5898DE] (AR v2)
All tracks accurately ripped
End of status report
---- CUETools DB Plugin V2.1.6
[CTDB TOCID: 3JxEX072LOezJRzazU8dNWrqhI0-] disk not present in database
Submit result: 3JxEX072LOezJRzazU8dNWrqhI0- has been uploaded
==== Log checksum A8E1FF4BC84FAF0CECC5AF0C46E849F2BD62CF7A01C8BC35F99644E02FEDBD6B ====

Содержание индексной карты (.CUE)

CD1

REM GENRE Classical
REM DATE 1999
REM DISCID D40DCE0F
REM COMMENT "ExactAudioCopy v1.0b6"
CATALOG 0000000000000
PERFORMER "Willi Boskovsky Ensemble"
TITLE "Wiener Bonbons, CD1"
FILE "Willi Boskovsky Ensemble - Wiener Bonbons, CD1.ape" WAVE
TRACK 01 AUDIO
TITLE "Chinesische Galopps - Johann Strauss sr"
PERFORMER "Willi Boskovsky Ensemble"
FLAGS DCP
INDEX 00 00:00:00
INDEX 01 00:01:00
TRACK 02 AUDIO
TITLE "Kettenbrückenwalzer - Johann Strauss sr"
PERFORMER "Willi Boskovsky Ensemble"
FLAGS DCP
INDEX 00 01:45:01
INDEX 01 01:48:46
TRACK 03 AUDIO
TITLE "Eisele und Beisele Sprüge - Johann Strauss sr"
PERFORMER "Willi Boskovsky Ensemble"
FLAGS DCP
INDEX 00 06:09:33
INDEX 01 06:13:03
TRACK 04 AUDIO
TITLE "Steyrische Tänze - Josef Lanner"
PERFORMER "Willi Boskovsky Ensemble"
FLAGS DCP
INDEX 00 08:05:46
INDEX 01 08:09:16
TRACK 05 AUDIO
TITLE "Wiener Gemühtswalzer - Johann Strauss jr"
PERFORMER "Willi Boskovsky Ensemble"
FLAGS DCP
INDEX 00 13:37:61
INDEX 01 13:41:31
TRACK 06 AUDIO
TITLE "Brüder Halt Galopp - Josef Lanner"
PERFORMER "Willi Boskovsky Ensemble"
FLAGS DCP
INDEX 00 19:44:47
INDEX 01 19:48:17
TRACK 07 AUDIO
TITLE "Marienwalzer - Josef Lanner"
PERFORMER "Willi Boskovsky Ensemble"
FLAGS DCP
INDEX 00 21:23:32
INDEX 01 21:27:02
TRACK 08 AUDIO
TITLE "Salonpoka - Johann Strauss jr"
PERFORMER "Willi Boskovsky Ensemble"
FLAGS DCP
INDEX 00 29:38:41
INDEX 01 29:42:11
TRACK 09 AUDIO
TITLE "Champagner Galopp - Johann Strauss jr"
PERFORMER "Willi Boskovsky Ensemble"
FLAGS DCP
INDEX 00 31:54:18
INDEX 01 31:57:63
TRACK 10 AUDIO
TITLE "Der Werberwalzer - Josef Lanner"
PERFORMER "Willi Boskovsky Ensemble"
FLAGS DCP
INDEX 00 33:23:11
INDEX 01 33:26:56
TRACK 11 AUDIO
TITLE "Cachucha Galopp - Johann Strauss sr"
PERFORMER "Willi Boskovsky Ensemble"
FLAGS DCP
INDEX 00 40:33:18
INDEX 01 40:36:63
TRACK 12 AUDIO
TITLE "Gitana Gallop - Johann Strauss sr"
PERFORMER "Willi Boskovsky Ensemble"
FLAGS DCP
INDEX 00 42:51:63
INDEX 01 42:55:33
TRACK 13 AUDIO
TITLE "Schnoflertanz - Johann Mayer"
PERFORMER "Willi Boskovsky Ensemble"
FLAGS DCP
INDEX 00 45:24:64
INDEX 01 45:28:34
TRACK 14 AUDIO
TITLE "Annen Polka - Johann Strauss sr"
PERFORMER "Willi Boskovsky Ensemble"
FLAGS DCP
INDEX 00 49:36:60
INDEX 01 49:40:30
TRACK 15 AUDIO
TITLE "Abendsterner Walzer - Josef Lanner"
PERFORMER "Willi Boskovsky Ensemble"
FLAGS DCP
INDEX 00 52:11:28
INDEX 01 52:14:73

CD2

REM GENRE Classical
REM DATE 1999
REM DISCID BE0E370E
REM COMMENT "ExactAudioCopy v1.0b6"
CATALOG 0000000000000
PERFORMER "Willi Boskosky Ensemble"
TITLE "Wiener Bonbons CD2"
FILE "Willi Boskosky Ensemble - Wiener Bonbons CD2.ape" WAVE
TRACK 01 AUDIO
TITLE "Cerrito Polka / Josef Lanner"
PERFORMER "Willi Boskosky Ensemble"
FLAGS DCP
INDEX 00 00:00:00
INDEX 01 00:01:00
TRACK 02 AUDIO
TITLE "Hofball Tänze / Johann Strauss sr"
PERFORMER "Willi Boskosky Ensemble"
FLAGS DCP
INDEX 00 02:54:54
INDEX 01 02:57:24
TRACK 03 AUDIO
TITLE "Stelzmüller Tänze / Vinzenz Stelzmüller"
PERFORMER "Willi Boskosky Ensemble"
FLAGS DCP
INDEX 00 07:50:29
INDEX 01 07:52:74
TRACK 04 AUDIO
TITLE "Seufzer Galopp / Johann Strauss sr"
PERFORMER "Willi Boskosky Ensemble"
FLAGS DCP
INDEX 00 09:26:14
INDEX 01 09:28:59
TRACK 05 AUDIO
TITLE "Neue Wiener Ländler / Josef Lanner"
PERFORMER "Willi Boskosky Ensemble"
FLAGS DCP
INDEX 00 11:10:11
INDEX 01 11:12:56
TRACK 06 AUDIO
TITLE "Zwei Mazurkas / Josef Lanner"
PERFORMER "Willi Boskosky Ensemble"
FLAGS DCP
INDEX 00 15:46:39
INDEX 01 15:49:09
TRACK 07 AUDIO
TITLE "Bajaderen Walzer / Johann Strauss sr"
PERFORMER "Willi Boskosky Ensemble"
FLAGS DCP
INDEX 00 20:41:08
INDEX 01 20:43:53
TRACK 08 AUDIO
TITLE "Scherz Polka / Johann Strauss jr"
PERFORMER "Willi Boskosky Ensemble"
FLAGS DCP
INDEX 00 27:42:48
INDEX 01 27:45:18
TRACK 09 AUDIO
TITLE "Galanterie Walzer / Hieronymus Payer"
PERFORMER "Willi Boskosky Ensemble"
FLAGS DCP
INDEX 00 30:37:38
INDEX 01 30:40:08
TRACK 10 AUDIO
TITLE "Malapou Galopp / Josef Lanner"
PERFORMER "Willi Boskosky Ensemble"
FLAGS DCP
INDEX 00 35:37:38
INDEX 01 35:40:08
TRACK 11 AUDIO
TITLE "Marienklänge Walzer / Josef Strauss"
PERFORMER "Willi Boskosky Ensemble"
FLAGS DCP
INDEX 00 37:06:57
INDEX 01 37:09:26
TRACK 12 AUDIO
TITLE "Hansjörgel Polka / Josef Lanner"
PERFORMER "Willi Boskosky Ensemble"
FLAGS DCP
INDEX 00 44:37:17
INDEX 01 44:39:62
TRACK 13 AUDIO
TITLE "Tänze Op.9 / Franz Schubert"
PERFORMER "Willi Boskosky Ensemble"
FLAGS DCP
INDEX 00 47:34:44
INDEX 01 47:37:14
TRACK 14 AUDIO
TITLE "Altwiener Tanz / Ludwig van Beethoven"
PERFORMER "Willi Boskosky Ensemble"
FLAGS DCP
INDEX 00 54:55:55
INDEX 01 54:58:25
[teatrix.ru].t9651.torrent 
Торрент: Зарегистрирован [ 2015-10-23 17:11 ] · 41133F215B751005344B1EF31C384F7B715881E8

Скачать .torrent

Скачать

13 KB

Статус: проверено
Скачан: 0 раз
Размер: 597 MB
terms.php



Быстрый ответ

Имя:

      
Для отправки сообщений необходимо включить JavaScript
Показать сообщения:    

Текущее время: 22-Янв 04:44

Часовой пояс: UTC + 3


Вы можете начинать темы
Вы можете отвечать на сообщения
Вы не можете редактировать свои сообщения
Вы не можете удалять свои сообщения
Вы не можете голосовать в опросах
Вы не можете прикреплять файлы к сообщениям
Вы можете скачивать файлы