(Classical) Рахманинов/Rachmaninov: Piano Concertos (Концерты для фортепиано, Рапсодия на тему Паганини, Прелюдии, Сюиты, Этюды, Сонаты) - Ashkenazy/Ашкенази, Andre Previn, LSO - 1997 (6CD), APE (tracks+.cue) lossless


Статистика раздачи [Обновить пиров]
Размер:  1.44 GB   |    Зарегистрирован:  1 год 1 месяц   |    Скачан:  0 раз

Полного источника не было: Никогда

Личеров:  3  [  0 KB/s  ]   Подробная статистика пиров
 
   
 
 
 

[Цитировать]

Рахманинов/Rachmaninov: Piano Concertos - Ashkenazy/Ашкенази, Andre Previn, London Symphony Orchestra
Sergei Rachmaninov
Жанр: Classical
Страна-производитель диска: Germany
Год издания диска: 1997
Издатель (лейбл): The Decca Record Company, London
Номер по каталогу: 455234
UPC: 028945523422
Дата записи: 1972,1973,1975,1976,1979,1982,1988
Аудиокодек: APE
Тип рипа: tracks+.cue
Битрейт аудио: lossless
Продолжительность: 63:08+72:15+76:43+75:44+75:13+70:18=7:13:21
Источник: собственный рип
Наличие сканов в содержимом раздачи: да
Треклист:
Disc 1
Piano Concerto No. 1 in F sharp minor, Op. 1
1.~1. Vivace 13:27
2.~2. Andante 06:56
3.~3. Allegro vivace 08:07
Piano Concerto No. 2 in C minor, Op. 18
4.~1. Moderato 11:08
5.~2. Adagio sostenuto 11:57
6.~3. Allegro scherzando 11:33
Disc 2
Piano Concerto No. 3 in D minor, Op. 30
1.~1. Allegro ma non tanto 18:45
2.~2. Intermezzo: Adagio 12:07
3.~3. Finale (Alla breve) 15:13
Piano Concerto No. 4 in G minor, Op. 40
4.~1. Allegro vivace (Alla breve) 10:03
5.~2. Largo 06:54
6.~3. Allegro vivace 09:13
Disc 3
1. Rhapsody on a Theme of Paganini (Introduction and 24 Variations), for piano & orchestra in A minor, Op. 43 23:42
Piano Sonata No. 2 in B flat minor, Op. 36
2.~1. Allegro agitato 10:27
3.~2. Non allegro 08:00
4.~3. Allegro molto 07:07
Etudes-Tableaux, for piano, Op. 33
5.~1. in F minor 02:51
6.~2. in C major 02:41
7.~3. in C minor 04:43
8.~4. in D minor 02:45
9.~5. in E flat minor 01:41
10.~6. in E flat major 01:45
11.~7. in G minor 03:46
12.~8. in C sharp minor 02:45
13. Prelude for piano No.1 in C sharp minor ("The Bells of Moscow"), Op. 3/2 04:30
Disc 4
Preludes (10) for piano, Op. 23
1.~1. in F sharp minor 04:21
2.~2. in B flat major 03:31
3.~3. in D minor 04:07
4.~4. in D major 05:34
5.~5. in G minor 03:55
6.~6. in E flat major 03:01
7.~7. in C minor 02:27
8.~8. in A flat major 03:14
9.~9. in E flat minor 01:51
10.~10. in G flat major 03:56
Preludes (13) for piano, Op. 32
11.~1. in C major 01:21
12.~2. in B flat minor 02:55
13.~3. in E major 02:17
14.~4. in E minor 05:13
15.~5. in G major 03:18
16.~6. in F minor 01:23
17.~7. in F major 02:11
18.~8. in A minor 01:46
19.~9. in A major 02:54
20.~10. in B minor 06:00
21.~11. in B major 02:07
22.~12. in G sharp minor 02:29
23.~13. in D flat major 05:53
Disc 5
Suite No. 1 ("Fantaisie-tableaux") for 2 pianos in G minor, Op. 5
1.~1. Barcarolle: Allegretto 07:42
2.~2. La Nuit, l'Amour: Adagio sostenuto 06:26
3.~3. Les Larmes: Largo di molto 06:19
4.~4. Pâques: Allegro maestoso 02:33
Suite No. 2 for 2 pianos in C major, Op. 17
5.~1. Introduction: Alla marcia 04:19
6.~2. Valse: Presto 05:55
7.~3. Romance: Andantino 06:56
8.~4. Tarantelle 05:47
9. Russian Rhapsody, for 2 pianos in E minor, TN ii/23 09:11
10. Variations on a Theme of Corelli, for piano, Op. 42 20:05
Disc 6
Etudes-Tableaux, for piano, Op. 39
1.~1. in C minor 02:58
2.~2. in A minor 06:40
3.~3. in F sharp minor 02:47
4.~4. in B minor 03:42
5.~5. in E flat minor 05:15
6.~6. in A minor 02:28
7.~7. in C minor 05:35
8.~8. in D minor 03:00
9.~9. in D major 03:38
Symphonic Dances, for orchestra (or 2 pianos), Op. 45
10.~1. Non allegro - Lento - Tempo 1 11:32
11.~2. Andante con moto (Tempo di vlase) 09:21
12.~3. Lento assai - Allegro vivace 13:22
Исполнители:
Vladimir Ashkenazy - Piano
André Previn - Conductor, Piano
London Symphony Orchestra

EAC LogsVladimir Ashkenazy, Andre Previn - Rachmaninov - Piano Concertos (CD1).log

Exact Audio Copy V1.0 beta 6 from 9. April 2015
EAC extraction logfile from 23. May 2015, 23:33
Vladimir Ashkenazy, André Previn / Rachmaninov: Piano Concertos (CD1)
Used drive : Optiarc DVD RW AD-7200S Adapter: 1 ID: 0
Read mode : SecureUtilize accurate stream : YesDefeat audio cache : YesMake use of C2 pointers : No
Read offset correction : 48Overread into Lead-In and Lead-Out : NoFill up missing offset samples with silence : YesDelete leading and trailing silent blocks : NoNull samples used in CRC calculations : YesUsed interface : Native Win32 interface for Win NT & 2000Gap handling : Appended to previous track
Used output format : User Defined EncoderSelected bitrate : 1024 kBit/sQuality : HighAdd ID3 tag : NoCommand line compressor : C:\program files\Monkey's Audio\wapet.exeAdditional command line options : %dest% -t "Genre=%genre%" -t "Artist=%artist%" -t "Title=%title%" -t "Album=%albumtitle%" -t "Year=%year%" -t "Track=%tracknr%" -t "Comment=%comment%" mac.exe %source% %dest% -c4000
TOC of the extracted CD
Track | Start | Length | Start sector | End sector --------------------------------------------------------- 1 | 0:00.33 | 13:27.67 | 33 | 60624 2 | 13:28.25 | 6:56.28 | 60625 | 91852 3 | 20:24.53 | 8:07.32 | 91853 | 128409 4 | 28:32.10 | 11:08.65 | 128410 | 178574 5 | 39:41.00 | 11:57.18 | 178575 | 232367 6 | 51:38.18 | 11:33.50 | 232368 | 284392
Track 1
Filename D:\Music\Sergei Rachmaninov\(1997) Rachmaninov - Piano Concertos\Vladimir Ashkenazy, Andre Previn - Rachmaninov - Piano Concertos (CD1) - 01. Piano Concerto No.1 in F sharp minor, Op.1 - 1. Vivace.wav
Pre-gap length 0:00:02.33
Peak level 100.0 % Extraction speed 2.5 X Track quality 99.9 % Test CRC 950DA087 Copy CRC 950DA087 Cannot be verified as accurate (confidence 69) [466C5B94], AccurateRip returned [22C2006B] (AR v2) Copy OK
Track 2
Filename D:\Music\Sergei Rachmaninov\(1997) Rachmaninov - Piano Concertos\Vladimir Ashkenazy, Andre Previn - Rachmaninov - Piano Concertos (CD1) - 02. Piano Concerto No.1 in F sharp minor, Op.1 - 2. Andante.wav
Pre-gap length 0:00:02.59
Peak level 44.1 % Extraction speed 3.4 X Track quality 100.0 % Test CRC A5DA1D10 Copy CRC A5DA1D10 Accurately ripped (confidence 71) [ED7DE393] (AR v2) Copy OK
Track 3
Filename D:\Music\Sergei Rachmaninov\(1997) Rachmaninov - Piano Concertos\Vladimir Ashkenazy, Andre Previn - Rachmaninov - Piano Concertos (CD1) - 03. Piano Concerto No.1 in F sharp minor, Op.1 - 3. Allegro vivace.wav
Pre-gap length 0:00:02.27
Peak level 92.9 % Extraction speed 3.8 X Track quality 100.0 % Test CRC 311A0251 Copy CRC 311A0251 Accurately ripped (confidence 70) [E20FFAC0] (AR v2) Copy OK
Track 4
Filename D:\Music\Sergei Rachmaninov\(1997) Rachmaninov - Piano Concertos\Vladimir Ashkenazy, Andre Previn - Rachmaninov - Piano Concertos (CD1) - 04. Piano Concerto No.2 in C minor, Op.18 - 1. Moderato.wav
Pre-gap length 0:00:13.12
Peak level 84.0 % Extraction speed 4.3 X Track quality 100.0 % Test CRC 591C4DF3 Copy CRC 591C4DF3 Accurately ripped (confidence 71) [2371393F] (AR v2) Copy OK
Track 5
Filename D:\Music\Sergei Rachmaninov\(1997) Rachmaninov - Piano Concertos\Vladimir Ashkenazy, Andre Previn - Rachmaninov - Piano Concertos (CD1) - 05. Piano Concerto No.2 in C minor, Op.18 - 2. Adagio sostenuto.wav
Pre-gap length 0:00:02.54
Peak level 91.8 % Extraction speed 4.8 X Track quality 100.0 % Test CRC 469A6B64 Copy CRC 469A6B64 Accurately ripped (confidence 71) [DFDE5D85] (AR v2) Copy OK
Track 6
Filename D:\Music\Sergei Rachmaninov\(1997) Rachmaninov - Piano Concertos\Vladimir Ashkenazy, Andre Previn - Rachmaninov - Piano Concertos (CD1) - 06. Piano Concerto No.2 in C minor, Op.18 - 3. Allegro scherzando.wav
Pre-gap length 0:00:04.44
Peak level 98.3 % Extraction speed 5.2 X Track quality 100.0 % Test CRC A410E71B Copy CRC A410E71B Accurately ripped (confidence 70) [C9547F91] (AR v2) Copy OK
5 трек(и) скопированы точно 1 трек(и) не удалось проверить на точность
Some tracks could not be verified as accurate
No errors occurred
End of status report
==== Log checksum 8CD7FB2088429AC61312EEB88C8403E99F37D21859F4D8FA45015837E6E59ACE ====

Vladimir Ashkenazy, Andre Previn - Rachmaninov - Piano Concertos (CD2).log

Exact Audio Copy V1.0 beta 6 from 9. April 2015
EAC extraction logfile from 23. May 2015, 22:56
Vladimir Ashkenazy, André Previn / Rachmaninov: Piano Concertos (CD2)
Used drive : Optiarc DVD RW AD-7200S Adapter: 1 ID: 0
Read mode : SecureUtilize accurate stream : YesDefeat audio cache : YesMake use of C2 pointers : No
Read offset correction : 48Overread into Lead-In and Lead-Out : NoFill up missing offset samples with silence : YesDelete leading and trailing silent blocks : NoNull samples used in CRC calculations : YesUsed interface : Native Win32 interface for Win NT & 2000Gap handling : Appended to previous track
Used output format : User Defined EncoderSelected bitrate : 1024 kBit/sQuality : HighAdd ID3 tag : NoCommand line compressor : C:\program files\Monkey's Audio\wapet.exeAdditional command line options : %dest% -t "Genre=%genre%" -t "Artist=%artist%" -t "Title=%title%" -t "Album=%albumtitle%" -t "Year=%year%" -t "Track=%tracknr%" -t "Comment=%comment%" mac.exe %source% %dest% -c4000
TOC of the extracted CD
Track | Start | Length | Start sector | End sector --------------------------------------------------------- 1 | 0:00.33 | 18:45.72 | 33 | 84479 2 | 18:46.30 | 12:07.48 | 84480 | 139052 3 | 30:54.03 | 15:13.25 | 139053 | 207552 4 | 46:07.28 | 10:03.32 | 207553 | 252809 5 | 56:10.60 | 6:54.00 | 252810 | 283859 6 | 63:04.60 | 9:13.10 | 283860 | 325344
Track 1
Filename D:\Music\Sergei Rachmaninov\(1997) Rachmaninov - Piano Concertos\Vladimir Ashkenazy, Andre Previn - Rachmaninov - Piano Concertos (CD2) - 01. Piano Concerto No.3 in D minor, op. 30 - I. Allegro ma non tanto.wav
Pre-gap length 0:00:02.33
Peak level 85.7 % Extraction speed 3.3 X Track quality 100.0 % Test CRC 8CB4A9AF Copy CRC 8CB4A9AF Accurately ripped (confidence 50) [FFE1F1CB] (AR v2) Copy OK
Track 2
Filename D:\Music\Sergei Rachmaninov\(1997) Rachmaninov - Piano Concertos\Vladimir Ashkenazy, Andre Previn - Rachmaninov - Piano Concertos (CD2) - 02. Piano Concerto No.3 in D minor, op. 30 - II. Intermezzo- Adagio.wav
Pre-gap length 0:00:02.20
Peak level 99.3 % Extraction speed 4.0 X Track quality 100.0 % Test CRC 05B34779 Copy CRC 05B34779 Accurately ripped (confidence 50) [80CCBAD5] (AR v2) Copy OK
Track 3
Filename D:\Music\Sergei Rachmaninov\(1997) Rachmaninov - Piano Concertos\Vladimir Ashkenazy, Andre Previn - Rachmaninov - Piano Concertos (CD2) - 03. Piano Concerto No.3 in D minor, op. 30 - III. Finale (Alla breve).wav
Peak level 99.8 % Extraction speed 4.5 X Track quality 99.9 % Test CRC E42176EC Copy CRC E42176EC Accurately ripped (confidence 50) [7492C9E6] (AR v2) Copy OK
Track 4
Filename D:\Music\Sergei Rachmaninov\(1997) Rachmaninov - Piano Concertos\Vladimir Ashkenazy, Andre Previn - Rachmaninov - Piano Concertos (CD2) - 04. Piano Concerto No.4 in G minor, op. 40 - I. Allegro vivace (Alla breve).wav
Pre-gap length 0:00:14.63
Peak level 97.1 % Extraction speed 5.1 X Track quality 100.0 % Test CRC 2A115A08 Copy CRC 2A115A08 Accurately ripped (confidence 50) [24CFDB2A] (AR v2) Copy OK
Track 5
Filename D:\Music\Sergei Rachmaninov\(1997) Rachmaninov - Piano Concertos\Vladimir Ashkenazy, Andre Previn - Rachmaninov - Piano Concertos (CD2) - 05. Piano Concerto No.4 in G minor, op. 40 - II. Largo.wav
Pre-gap length 0:00:05.08
Peak level 78.2 % Extraction speed 4.9 X Track quality 99.9 % Test CRC 29CD7DED Copy CRC 29CD7DED Accurately ripped (confidence 49) [C0A552D6] (AR v2) Copy OK
Track 6
Filename D:\Music\Sergei Rachmaninov\(1997) Rachmaninov - Piano Concertos\Vladimir Ashkenazy, Andre Previn - Rachmaninov - Piano Concertos (CD2) - 06. Piano Concerto No.4 in G minor, op. 40 - III. Allegro vivace.wav
Peak level 100.0 % Extraction speed 5.3 X Track quality 99.9 % Test CRC EEBC2F60 Copy CRC EEBC2F60 Accurately ripped (confidence 48) [DCB594AD] (AR v2) Copy OK
All tracks accurately ripped
No errors occurred
End of status report
==== Log checksum 60805B4E2CEDB01A713A664847D5BA3454750F990D24EC1429122EA531891B60 ====

Vladimir Ashkenazy, Andre Previn - Rachmaninov - Piano Concertos (CD3).log

Exact Audio Copy V1.0 beta 6 from 9. April 2015
EAC extraction logfile from 28. June 2015, 18:46
Vladimir Ashkenazy, André Previn / Rachmaninov: Piano Concertos (CD3)
Used drive : ATAPI iHES208 2 Adapter: 1 ID: 0
Read mode : SecureUtilize accurate stream : YesDefeat audio cache : YesMake use of C2 pointers : Yes
Read offset correction : 6Overread into Lead-In and Lead-Out : NoFill up missing offset samples with silence : YesDelete leading and trailing silent blocks : NoNull samples used in CRC calculations : YesUsed interface : Native Win32 interface for Win NT & 2000Gap handling : Appended to previous track
Used output format : User Defined EncoderSelected bitrate : 1024 kBit/sQuality : HighAdd ID3 tag : NoCommand line compressor : C:\Program Files (x86)\Monkey's Audio\wapet.exeAdditional command line options : %dest% -t "Genre=%genre%" -t "Artist=%artist%" -t "Title=%title%" -t "Album=%albumtitle%" -t "Year=%year%" -t "Track=%tracknr%" -t "Comment=%comment%" mac.exe %source% %dest% -c4000
TOC of the extracted CD
Track | Start | Length | Start sector | End sector --------------------------------------------------------- 1 | 0:00.32 | 23:42.25 | 32 | 106706 2 | 23:42.57 | 10:27.13 | 106707 | 153744 3 | 34:09.70 | 8:00.25 | 153745 | 189769 4 | 42:10.20 | 7:07.50 | 189770 | 221844 5 | 49:17.70 | 2:51.62 | 221845 | 234731 6 | 52:09.57 | 2:41.63 | 234732 | 246869 7 | 54:51.45 | 4:43.12 | 246870 | 268106 8 | 59:34.57 | 2:45.50 | 268107 | 280531 9 | 62:20.32 | 1:41.00 | 280532 | 288106 10 | 64:01.32 | 1:45.00 | 288107 | 295981 11 | 65:46.32 | 3:46.38 | 295982 | 312969 12 | 69:32.70 | 2:45.37 | 312970 | 325381 13 | 72:18.32 | 4:30.25 | 325382 | 345656
Track 1
Filename D:\Music\Sergei Rachmaninov\(1997) Rachmaninov - Piano Concertos (CD3)\Vladimir Ashkenazy, Andre Previn - Rachmaninov - Piano Concertos (CD3) - 01. Rhapsody on a Theme of Paganini, op. 43.wav
Pre-gap length 0:00:02.32
Peak level 100.0 % Extraction speed 4.4 X Track quality 100.0 % Test CRC 2A6BD4B3 Copy CRC 2A6BD4B3 Accurately ripped (confidence 10) [BEDA5248] (AR v2) Copy OK
Track 2
Filename D:\Music\Sergei Rachmaninov\(1997) Rachmaninov - Piano Concertos (CD3)\Vladimir Ashkenazy, Andre Previn - Rachmaninov - Piano Concertos (CD3) - 02. Piano Sonata No.2 in B flat minor, op. 36 - I. Allegro agitato.wav
Pre-gap length 0:00:03.62
Peak level 79.5 % Extraction speed 5.4 X Track quality 100.0 % Test CRC 7A76367F Copy CRC 7A76367F Accurately ripped (confidence 12) [F1179192] (AR v2) Copy OK
Track 3
Filename D:\Music\Sergei Rachmaninov\(1997) Rachmaninov - Piano Concertos (CD3)\Vladimir Ashkenazy, Andre Previn - Rachmaninov - Piano Concertos (CD3) - 03. Piano Sonata No.2 in B flat minor, op. 36 - II. Non allegro.wav
Pre-gap length 0:00:02.00
Peak level 67.6 % Extraction speed 5.7 X Track quality 100.0 % Test CRC 8BF16015 Copy CRC 8BF16015 Accurately ripped (confidence 12) [0D78DF0C] (AR v2) Copy OK
Track 4
Filename D:\Music\Sergei Rachmaninov\(1997) Rachmaninov - Piano Concertos (CD3)\Vladimir Ashkenazy, Andre Previn - Rachmaninov - Piano Concertos (CD3) - 04. Piano Sonata No.2 in B flat minor, op. 36 - III. Allegro molto.wav
Peak level 80.2 % Extraction speed 5.9 X Track quality 100.0 % Test CRC 4AA3C3DC Copy CRC 4AA3C3DC Accurately ripped (confidence 12) [9312FC81] (AR v2) Copy OK
Track 5
Filename D:\Music\Sergei Rachmaninov\(1997) Rachmaninov - Piano Concertos (CD3)\Vladimir Ashkenazy, Andre Previn - Rachmaninov - Piano Concertos (CD3) - 05. Etudes-tableaux, op. 33 - No.1 in F minor.wav
Pre-gap length 0:00:03.00
Peak level 48.2 % Extraction speed 5.3 X Track quality 100.0 % Test CRC A09A46E8 Copy CRC A09A46E8 Accurately ripped (confidence 12) [00C25F33] (AR v2) Copy OK
Track 6
Filename D:\Music\Sergei Rachmaninov\(1997) Rachmaninov - Piano Concertos (CD3)\Vladimir Ashkenazy, Andre Previn - Rachmaninov - Piano Concertos (CD3) - 06. Etudes-tableaux, op. 33 - No.2 in C major.wav
Pre-gap length 0:00:05.00
Peak level 56.6 % Extraction speed 5.2 X Track quality 100.0 % Test CRC 4C826DF1 Copy CRC 4C826DF1 Accurately ripped (confidence 11) [FB8FD4A7] (AR v2) Copy OK
Track 7
Filename D:\Music\Sergei Rachmaninov\(1997) Rachmaninov - Piano Concertos (CD3)\Vladimir Ashkenazy, Andre Previn - Rachmaninov - Piano Concertos (CD3) - 07. Etudes-tableaux, op. 33 - No.3 in C minor.wav
Pre-gap length 0:00:06.50
Peak level 54.5 % Extraction speed 6.1 X Track quality 100.0 % Test CRC BFC814D5 Copy CRC BFC814D5 Accurately ripped (confidence 12) [4DDC7633] (AR v2) Copy OK
Track 8
Filename D:\Music\Sergei Rachmaninov\(1997) Rachmaninov - Piano Concertos (CD3)\Vladimir Ashkenazy, Andre Previn - Rachmaninov - Piano Concertos (CD3) - 08. Etudes-tableaux, op. 33 - No.4 in D minor.wav
Pre-gap length 0:00:04.50
Peak level 68.7 % Extraction speed 5.6 X Track quality 100.0 % Test CRC 239C06D2 Copy CRC 239C06D2 Accurately ripped (confidence 12) [149C04CF] (AR v2) Copy OK
Track 9
Filename D:\Music\Sergei Rachmaninov\(1997) Rachmaninov - Piano Concertos (CD3)\Vladimir Ashkenazy, Andre Previn - Rachmaninov - Piano Concertos (CD3) - 09. Etudes-tableaux, op. 33 - No.5 in E flat minor.wav
Pre-gap length 0:00:05.25
Peak level 74.2 % Extraction speed 2.5 X Track quality 99.7 % Test CRC 38E98F43 Copy CRC 38E98F43 Accurately ripped (confidence 12) [018F569A] (AR v2) Copy OK
Track 10
Filename D:\Music\Sergei Rachmaninov\(1997) Rachmaninov - Piano Concertos (CD3)\Vladimir Ashkenazy, Andre Previn - Rachmaninov - Piano Concertos (CD3) - 10. Etudes-tableaux, op. 33 - No.6 in E flat major.wav
Pre-gap length 0:00:04.00
Peak level 88.1 % Extraction speed 5.0 X Track quality 100.0 % Test CRC E425C758 Copy CRC E425C758 Accurately ripped (confidence 12) [29695765] (AR v2) Copy OK
Track 11
Filename D:\Music\Sergei Rachmaninov\(1997) Rachmaninov - Piano Concertos (CD3)\Vladimir Ashkenazy, Andre Previn - Rachmaninov - Piano Concertos (CD3) - 11. Etudes-tableaux, op. 33 - No.7 in G minor.wav
Pre-gap length 0:00:03.25
Peak level 42.4 % Extraction speed 6.2 X Track quality 100.0 % Test CRC 5405B6BD Copy CRC 5405B6BD Accurately ripped (confidence 11) [DECFC337] (AR v2) Copy OK
Track 12
Filename D:\Music\Sergei Rachmaninov\(1997) Rachmaninov - Piano Concertos (CD3)\Vladimir Ashkenazy, Andre Previn - Rachmaninov - Piano Concertos (CD3) - 12. Etudes-tableaux, op. 33 - No.8 in C sharp minor.wav
Pre-gap length 0:00:03.63
Peak level 86.3 % Extraction speed 6.0 X Track quality 100.0 % Test CRC BFC0927B Copy CRC BFC0927B Accurately ripped (confidence 11) [852F39BA] (AR v2) Copy OK
Track 13
Filename D:\Music\Sergei Rachmaninov\(1997) Rachmaninov - Piano Concertos (CD3)\Vladimir Ashkenazy, Andre Previn - Rachmaninov - Piano Concertos (CD3) - 13. Prelude for piano No.1 in C sharp minor (''The Bells of Moscow''), Op.3 no.2.wav
Pre-gap length 0:00:02.00
Peak level 90.3 % Extraction speed 6.7 X Track quality 100.0 % Test CRC 36B31B4E Copy CRC 36B31B4E Accurately ripped (confidence 11) [F1795EE9] (AR v2) Copy OK
All tracks accurately ripped
No errors occurred
End of status report
==== Log checksum CFB23F69CA40EBA95E71F7FC3E4FA2016C71C5A8A87625FDB89ED1CBEDAB55D3 ====

Vladimir Ashkenazy, Andre Previn - Rachmaninov - Piano Concertos (CD4).log

Exact Audio Copy V1.0 beta 6 from 9. April 2015
EAC extraction logfile from 24. May 2015, 10:40
Vladimir Ashkenazy, André Previn / Rachmaninov: Piano Concertos (CD4)
Used drive : Optiarc DVD RW AD-7200S Adapter: 1 ID: 0
Read mode : SecureUtilize accurate stream : YesDefeat audio cache : YesMake use of C2 pointers : No
Read offset correction : 48Overread into Lead-In and Lead-Out : NoFill up missing offset samples with silence : YesDelete leading and trailing silent blocks : NoNull samples used in CRC calculations : YesUsed interface : Native Win32 interface for Win NT & 2000Gap handling : Appended to previous track
Used output format : User Defined EncoderSelected bitrate : 1024 kBit/sQuality : HighAdd ID3 tag : NoCommand line compressor : C:\program files\Monkey's Audio\wapet.exeAdditional command line options : %dest% -t "Genre=%genre%" -t "Artist=%artist%" -t "Title=%title%" -t "Album=%albumtitle%" -t "Year=%year%" -t "Track=%tracknr%" -t "Comment=%comment%" mac.exe %source% %dest% -c4000
TOC of the extracted CD
Track | Start | Length | Start sector | End sector --------------------------------------------------------- 1 | 0:00.32 | 4:21.13 | 32 | 19619 2 | 4:21.45 | 3:31.00 | 19620 | 35444 3 | 7:52.45 | 4:07.50 | 35445 | 54019 4 | 12:00.20 | 5:34.12 | 54020 | 79081 5 | 17:34.32 | 3:55.13 | 79082 | 96719 6 | 21:29.45 | 3:01.00 | 96720 | 110294 7 | 24:30.45 | 2:27.25 | 110295 | 121344 8 | 26:57.70 | 3:14.25 | 121345 | 135919 9 | 30:12.20 | 1:51.50 | 135920 | 144294 10 | 32:03.70 | 3:56.12 | 144295 | 162006 11 | 36:00.07 | 1:21.13 | 162007 | 168094 12 | 37:21.20 | 2:55.25 | 168095 | 181244 13 | 40:16.45 | 2:17.25 | 181245 | 191544 14 | 42:33.70 | 5:13.12 | 191545 | 215031 15 | 47:47.07 | 3:18.13 | 215032 | 229894 16 | 51:05.20 | 1:23.00 | 229895 | 236119 17 | 52:28.20 | 2:11.62 | 236120 | 246006 18 | 54:40.07 | 1:46.63 | 246007 | 254019 19 | 56:26.70 | 2:54.00 | 254020 | 267069 20 | 59:20.70 | 6:00.37 | 267070 | 294106 21 | 65:21.32 | 2:07.38 | 294107 | 303669 22 | 67:28.70 | 2:29.62 | 303670 | 314906 23 | 69:58.57 | 5:53.13 | 314907 | 341394
Track 1
Filename D:\Music\Sergei Rachmaninov\(1997) Rachmaninov - Piano Concertos\Vladimir Ashkenazy, Andre Previn - Rachmaninov - Piano Concertos (CD4) - 01. 10 Preludes, op. 23 - No. 1 in F sharp minor.wav
Pre-gap length 0:00:02.32
Peak level 68.0 % Extraction speed 2.5 X Track quality 100.0 % Test CRC 9C0320A5 Copy CRC 9C0320A5 Accurately ripped (confidence 9) [878AE695] (AR v2) Copy OK
Track 2
Filename D:\Music\Sergei Rachmaninov\(1997) Rachmaninov - Piano Concertos\Vladimir Ashkenazy, Andre Previn - Rachmaninov - Piano Concertos (CD4) - 02. 10 Preludes, op. 23 - No. 2 in B flat major.wav
Pre-gap length 0:00:03.63
Peak level 99.2 % Extraction speed 2.7 X Track quality 100.0 % Test CRC 1BCF8271 Copy CRC 1BCF8271 Accurately ripped (confidence 9) [BCAE7DEF] (AR v2) Copy OK
Track 3
Filename D:\Music\Sergei Rachmaninov\(1997) Rachmaninov - Piano Concertos\Vladimir Ashkenazy, Andre Previn - Rachmaninov - Piano Concertos (CD4) - 03. 10 Preludes, op. 23 - No. 3 in D minor.wav
Pre-gap length 0:00:03.50
Peak level 55.2 % Extraction speed 2.6 X Track quality 99.9 % Test CRC C8176B91 Copy CRC C8176B91 Accurately ripped (confidence 9) [E6AA1EC4] (AR v2) Copy OK
Track 4
Filename D:\Music\Sergei Rachmaninov\(1997) Rachmaninov - Piano Concertos\Vladimir Ashkenazy, Andre Previn - Rachmaninov - Piano Concertos (CD4) - 04. 10 Preludes, op. 23 - No. 4 in D major.wav
Pre-gap length 0:00:01.74
Peak level 64.7 % Extraction speed 3.3 X Track quality 100.0 % Test CRC F4686682 Copy CRC F4686682 Accurately ripped (confidence 9) [DC630236] (AR v2) Copy OK
Track 5
Filename D:\Music\Sergei Rachmaninov\(1997) Rachmaninov - Piano Concertos\Vladimir Ashkenazy, Andre Previn - Rachmaninov - Piano Concertos (CD4) - 05. 10 Preludes, op. 23 - No. 5 in G minor.wav
Pre-gap length 0:00:03.37
Peak level 70.6 % Extraction speed 3.4 X Track quality 100.0 % Test CRC ABDD7F01 Copy CRC ABDD7F01 Accurately ripped (confidence 9) [0D9ED150] (AR v2) Copy OK
Track 6
Filename D:\Music\Sergei Rachmaninov\(1997) Rachmaninov - Piano Concertos\Vladimir Ashkenazy, Andre Previn - Rachmaninov - Piano Concertos (CD4) - 06. 10 Preludes, op. 23 - No. 6 in E flat major.wav
Pre-gap length 0:00:06.38
Peak level 87.3 % Extraction speed 3.4 X Track quality 100.0 % Test CRC 68E6068C Copy CRC 68E6068C Accurately ripped (confidence 9) [B476807B] (AR v2) Copy OK
Track 7
Filename D:\Music\Sergei Rachmaninov\(1997) Rachmaninov - Piano Concertos\Vladimir Ashkenazy, Andre Previn - Rachmaninov - Piano Concertos (CD4) - 07. 10 Preludes, op. 23 - No. 7 in C minor.wav
Pre-gap length 0:00:03.63
Peak level 68.4 % Extraction speed 3.3 X Track quality 100.0 % Test CRC B488B35C Copy CRC B488B35C Accurately ripped (confidence 9) [503C3932] (AR v2) Copy OK
Track 8
Filename D:\Music\Sergei Rachmaninov\(1997) Rachmaninov - Piano Concertos\Vladimir Ashkenazy, Andre Previn - Rachmaninov - Piano Concertos (CD4) - 08. 10 Preludes, op. 23 - No. 8 in A flat major.wav
Pre-gap length 0:00:03.00
Peak level 43.5 % Extraction speed 3.7 X Track quality 100.0 % Test CRC 6691E51B Copy CRC 6691E51B Accurately ripped (confidence 9) [9DA3EE49] (AR v2) Copy OK
Track 9
Filename D:\Music\Sergei Rachmaninov\(1997) Rachmaninov - Piano Concertos\Vladimir Ashkenazy, Andre Previn - Rachmaninov - Piano Concertos (CD4) - 09. 10 Preludes, op. 23 - No. 9 in E flat minor.wav
Pre-gap length 0:00:04.25
Peak level 48.3 % Extraction speed 3.4 X Track quality 100.0 % Test CRC 9F4E31DF Copy CRC 9F4E31DF Accurately ripped (confidence 9) [4D4CDA92] (AR v2) Copy OK
Track 10
Filename D:\Music\Sergei Rachmaninov\(1997) Rachmaninov - Piano Concertos\Vladimir Ashkenazy, Andre Previn - Rachmaninov - Piano Concertos (CD4) - 10. 10 Preludes, op. 23 - No. 10 in G flat major.wav
Pre-gap length 0:00:04.63
Peak level 30.7 % Extraction speed 4.0 X Track quality 100.0 % Test CRC 65206F82 Copy CRC 65206F82 Accurately ripped (confidence 9) [2EE09182] (AR v2) Copy OK
Track 11
Filename D:\Music\Sergei Rachmaninov\(1997) Rachmaninov - Piano Concertos\Vladimir Ashkenazy, Andre Previn - Rachmaninov - Piano Concertos (CD4) - 11. 13 Preludes, op. 32 - No. 1 in C major.wav
Pre-gap length 0:00:03.00
Peak level 72.3 % Extraction speed 3.3 X Track quality 100.0 % Test CRC 44151D64 Copy CRC 44151D64 Accurately ripped (confidence 9) [5ED148EE] (AR v2) Copy OK
Track 12
Filename D:\Music\Sergei Rachmaninov\(1997) Rachmaninov - Piano Concertos\Vladimir Ashkenazy, Andre Previn - Rachmaninov - Piano Concertos (CD4) - 12. 13 Preludes, op. 32 - No. 2 in B flat minor.wav
Pre-gap length 0:00:04.63
Peak level 46.9 % Extraction speed 4.0 X Track quality 100.0 % Test CRC 0004BC36 Copy CRC 0004BC36 Accurately ripped (confidence 9) [579DD84B] (AR v2) Copy OK
Track 13
Filename D:\Music\Sergei Rachmaninov\(1997) Rachmaninov - Piano Concertos\Vladimir Ashkenazy, Andre Previn - Rachmaninov - Piano Concertos (CD4) - 13. 13 Preludes, op. 32 - No. 3 in E major.wav
Pre-gap length 0:00:03.25
Peak level 72.4 % Extraction speed 3.9 X Track quality 100.0 % Test CRC F17B3CF6 Copy CRC F17B3CF6 Accurately ripped (confidence 9) [EDB6DB24] (AR v2) Copy OK
Track 14
Filename D:\Music\Sergei Rachmaninov\(1997) Rachmaninov - Piano Concertos\Vladimir Ashkenazy, Andre Previn - Rachmaninov - Piano Concertos (CD4) - 14. 13 Preludes, op. 32 - No. 4 in E minor.wav
Pre-gap length 0:00:03.00
Peak level 86.4 % Extraction speed 4.6 X Track quality 100.0 % Test CRC B1836A04 Copy CRC B1836A04 Accurately ripped (confidence 9) [BC1E8175] (AR v2) Copy OK
Track 15
Filename D:\Music\Sergei Rachmaninov\(1997) Rachmaninov - Piano Concertos\Vladimir Ashkenazy, Andre Previn - Rachmaninov - Piano Concertos (CD4) - 15. 13 Preludes, op. 32 - No. 5 in G major.wav
Pre-gap length 0:00:02.25
Peak level 33.4 % Extraction speed 3.8 X Track quality 99.9 % Test CRC CC1FA2FD Copy CRC CC1FA2FD Accurately ripped (confidence 9) [25B98364] (AR v2) Copy OK
Track 16
Filename D:\Music\Sergei Rachmaninov\(1997) Rachmaninov - Piano Concertos\Vladimir Ashkenazy, Andre Previn - Rachmaninov - Piano Concertos (CD4) - 16. 13 Preludes, op. 32 - No. 6 in F minor.wav
Pre-gap length 0:00:01.50
Peak level 61.3 % Extraction speed 2.8 X Track quality 99.8 % Test CRC 76028045 Copy CRC 76028045 Accurately ripped (confidence 9) [ECEA1340] (AR v2) Copy OK
Track 17
Filename D:\Music\Sergei Rachmaninov\(1997) Rachmaninov - Piano Concertos\Vladimir Ashkenazy, Andre Previn - Rachmaninov - Piano Concertos (CD4) - 17. 13 Preludes, op. 32 - No. 7 in F major.wav
Pre-gap length 0:00:01.00
Peak level 46.8 % Extraction speed 3.5 X Track quality 99.9 % Test CRC 62883354 Copy CRC 62883354 Accurately ripped (confidence 9) [8406BC32] (AR v2) Copy OK
Track 18
Filename D:\Music\Sergei Rachmaninov\(1997) Rachmaninov - Piano Concertos\Vladimir Ashkenazy, Andre Previn - Rachmaninov - Piano Concertos (CD4) - 18. 13 Preludes, op. 32 - No. 8 in A minor.wav
Pre-gap length 0:00:03.37
Peak level 69.2 % Extraction speed 4.0 X Track quality 100.0 % Test CRC E1A27040 Copy CRC E1A27040 Accurately ripped (confidence 9) [33DE013F] (AR v2) Copy OK
Track 19
Filename D:\Music\Sergei Rachmaninov\(1997) Rachmaninov - Piano Concertos\Vladimir Ashkenazy, Andre Previn - Rachmaninov - Piano Concertos (CD4) - 19. 13 Preludes, op. 32 - No. 9 in A major.wav
Pre-gap length 0:00:03.25
Peak level 60.7 % Extraction speed 4.6 X Track quality 100.0 % Test CRC 20309CA5 Copy CRC 20309CA5 Accurately ripped (confidence 9) [4BB7FA49] (AR v2) Copy OK
Track 20
Filename D:\Music\Sergei Rachmaninov\(1997) Rachmaninov - Piano Concertos\Vladimir Ashkenazy, Andre Previn - Rachmaninov - Piano Concertos (CD4) - 20. 13 Preludes, op. 32 - No. 10 in B minor.wav
Pre-gap length 0:00:02.25
Peak level 72.9 % Extraction speed 5.2 X Track quality 100.0 % Test CRC 91A83043 Copy CRC 91A83043 Accurately ripped (confidence 9) [8FA2F5A7] (AR v2) Copy OK
Track 21
Filename D:\Music\Sergei Rachmaninov\(1997) Rachmaninov - Piano Concertos\Vladimir Ashkenazy, Andre Previn - Rachmaninov - Piano Concertos (CD4) - 21. 13 Preludes, op. 32 - No. 11 in B major.wav
Pre-gap length 0:00:03.62
Peak level 35.5 % Extraction speed 4.5 X Track quality 100.0 % Test CRC 90017D29 Copy CRC 90017D29 Accurately ripped (confidence 9) [64BF1AC8] (AR v2) Copy OK
Track 22
Filename D:\Music\Sergei Rachmaninov\(1997) Rachmaninov - Piano Concertos\Vladimir Ashkenazy, Andre Previn - Rachmaninov - Piano Concertos (CD4) - 22. 13 Preludes, op. 32 - No. 12 in G sharp minor.wav
Pre-gap length 0:00:03.63
Peak level 71.2 % Extraction speed 4.8 X Track quality 100.0 % Test CRC D6940FBF Copy CRC D6940FBF Accurately ripped (confidence 9) [44BFDD55] (AR v2) Copy OK
Track 23
Filename D:\Music\Sergei Rachmaninov\(1997) Rachmaninov - Piano Concertos\Vladimir Ashkenazy, Andre Previn - Rachmaninov - Piano Concertos (CD4) - 23. 13 Preludes, op. 32 - No. 13 in D flat major.wav
Pre-gap length 0:00:04.25
Peak level 93.3 % Extraction speed 5.6 X Track quality 100.0 % Test CRC 62E8CFE2 Copy CRC 62E8CFE2 Accurately ripped (confidence 8) [77F92E40] (AR v2) Copy OK
All tracks accurately ripped
No errors occurred
End of status report
==== Log checksum 0E79B934FDECA0D6DE43248AF4369AB0DC9B1E6AEF84CAF156B19FFFA57DE7E4 ====

Vladimir Ashkenazy, Andre Previn - Rachmaninov - Piano Concertos (CD5).log

Exact Audio Copy V1.0 beta 6 from 9. April 2015
EAC extraction logfile from 24. May 2015, 11:33
Vladimir Ashkenazy, André Previn / Rachmaninov: Piano Concertos (CD5)
Used drive : Optiarc DVD RW AD-7200S Adapter: 1 ID: 0
Read mode : SecureUtilize accurate stream : YesDefeat audio cache : YesMake use of C2 pointers : No
Read offset correction : 48Overread into Lead-In and Lead-Out : NoFill up missing offset samples with silence : YesDelete leading and trailing silent blocks : NoNull samples used in CRC calculations : YesUsed interface : Native Win32 interface for Win NT & 2000Gap handling : Appended to previous track
Used output format : User Defined EncoderSelected bitrate : 1024 kBit/sQuality : HighAdd ID3 tag : NoCommand line compressor : C:\program files\Monkey's Audio\wapet.exeAdditional command line options : %dest% -t "Genre=%genre%" -t "Artist=%artist%" -t "Title=%title%" -t "Album=%albumtitle%" -t "Year=%year%" -t "Track=%tracknr%" -t "Comment=%comment%" mac.exe %source% %dest% -c4000
TOC of the extracted CD
Track | Start | Length | Start sector | End sector --------------------------------------------------------- 1 | 0:00.32 | 7:42.25 | 32 | 34706 2 | 7:42.57 | 6:26.00 | 34707 | 63656 3 | 14:08.57 | 6:19.13 | 63657 | 92094 4 | 20:27.70 | 2:33.37 | 92095 | 103606 5 | 23:01.32 | 4:19.50 | 103607 | 123081 6 | 27:21.07 | 5:55.00 | 123082 | 149706 7 | 33:16.07 | 6:56.00 | 149707 | 180906 8 | 40:12.07 | 5:47.50 | 180907 | 206981 9 | 45:59.57 | 9:11.38 | 206982 | 248344 10 | 55:11.20 | 20:05.37 | 248345 | 338756
Track 1
Filename D:\Music\Sergei Rachmaninov\(1997) Rachmaninov - Piano Concertos\Vladimir Ashkenazy, Andre Previn - Rachmaninov - Piano Concertos (CD5) - 01. Suite No. 1 for 2 pianos, op. 5 - I. Barcarolle - Allegretto.wav
Pre-gap length 0:00:02.32
Peak level 51.1 % Extraction speed 2.8 X Track quality 100.0 % Test CRC FF7A3D09 Copy CRC FF7A3D09 Accurately ripped (confidence 25) [B5D25FD9] (AR v2) Copy OK
Track 2
Filename D:\Music\Sergei Rachmaninov\(1997) Rachmaninov - Piano Concertos\Vladimir Ashkenazy, Andre Previn - Rachmaninov - Piano Concertos (CD5) - 02. Suite No. 1 for 2 pianos, op. 5 - II. La Nuit, l'Amour - Adagio sostenuto.wav
Pre-gap length 0:00:03.50
Peak level 84.2 % Extraction speed 3.2 X Track quality 100.0 % Test CRC 99E59B8F Copy CRC 99E59B8F Accurately ripped (confidence 25) [9861DCC6] (AR v2) Copy OK
Track 3
Filename D:\Music\Sergei Rachmaninov\(1997) Rachmaninov - Piano Concertos\Vladimir Ashkenazy, Andre Previn - Rachmaninov - Piano Concertos (CD5) - 03. Suite No. 1 for 2 pianos, op. 5 - III. Les Larmes - Largo di molto.wav
Pre-gap length 0:00:06.12
Peak level 71.1 % Extraction speed 3.5 X Track quality 100.0 % Test CRC 6A15D5E9 Copy CRC 6A15D5E9 Accurately ripped (confidence 25) [5D70628E] (AR v2) Copy OK
Track 4
Filename D:\Music\Sergei Rachmaninov\(1997) Rachmaninov - Piano Concertos\Vladimir Ashkenazy, Andre Previn - Rachmaninov - Piano Concertos (CD5) - 04. Suite No. 1 for 2 pianos, op. 5 - IV. Paques - Allegro maestoso.wav
Pre-gap length 0:00:06.13
Peak level 78.4 % Extraction speed 3.3 X Track quality 100.0 % Test CRC 5FEE672B Copy CRC 5FEE672B Accurately ripped (confidence 25) [F58490FD] (AR v2) Copy OK
Track 5
Filename D:\Music\Sergei Rachmaninov\(1997) Rachmaninov - Piano Concertos\Vladimir Ashkenazy, Andre Previn - Rachmaninov - Piano Concertos (CD5) - 05. Suite No. 2 for 2 pianos, op. 17 - I. Introduction - Alla marcia.wav
Pre-gap length 0:00:07.62
Peak level 84.0 % Extraction speed 3.7 X Track quality 100.0 % Test CRC 8F72EC69 Copy CRC 8F72EC69 Accurately ripped (confidence 25) [4800C018] (AR v2) Copy OK
Track 6
Filename D:\Music\Sergei Rachmaninov\(1997) Rachmaninov - Piano Concertos\Vladimir Ashkenazy, Andre Previn - Rachmaninov - Piano Concertos (CD5) - 06. Suite No. 2 for 2 pianos, op. 17 - II. Valse - Presto.wav
Pre-gap length 0:00:05.00
Peak level 78.5 % Extraction speed 3.8 X Track quality 100.0 % Test CRC BB4179FF Copy CRC BB4179FF Cannot be verified as accurate (confidence 24) [ADA66B80], AccurateRip returned [4535A825] (AR v2) Copy OK
Track 7
Filename D:\Music\Sergei Rachmaninov\(1997) Rachmaninov - Piano Concertos\Vladimir Ashkenazy, Andre Previn - Rachmaninov - Piano Concertos (CD5) - 07. Suite No. 2 for 2 pianos, op. 17 - III. Romance - Andantino.wav
Pre-gap length 0:00:04.12
Peak level 78.7 % Extraction speed 4.1 X Track quality 99.9 % Test CRC 30C2B740 Copy CRC 30C2B740 Accurately ripped (confidence 24) [9BDE389F] (AR v2) Copy OK
Track 8
Filename D:\Music\Sergei Rachmaninov\(1997) Rachmaninov - Piano Concertos\Vladimir Ashkenazy, Andre Previn - Rachmaninov - Piano Concertos (CD5) - 08. Suite No. 2 for 2 pianos, op. 17 - IV. Tarantelle.wav
Pre-gap length 0:00:03.25
Peak level 87.5 % Extraction speed 4.6 X Track quality 100.0 % Test CRC 5A9606D4 Copy CRC 5A9606D4 Accurately ripped (confidence 25) [1BE253A0] (AR v2) Copy OK
Track 9
Filename D:\Music\Sergei Rachmaninov\(1997) Rachmaninov - Piano Concertos\Vladimir Ashkenazy, Andre Previn - Rachmaninov - Piano Concertos (CD5) - 09. Russian Rhapsody for 2 pianos.wav
Pre-gap length 0:00:02.50
Peak level 98.8 % Extraction speed 5.0 X Track quality 100.0 % Test CRC B050DE01 Copy CRC B050DE01 Accurately ripped (confidence 25) [BC53756A] (AR v2) Copy OK
Track 10
Filename D:\Music\Sergei Rachmaninov\(1997) Rachmaninov - Piano Concertos\Vladimir Ashkenazy, Andre Previn - Rachmaninov - Piano Concertos (CD5) - 10. Variations on a theme by Corelli, for piano, op. 42.wav
Pre-gap length 0:00:09.13
Peak level 100.0 % Extraction speed 5.6 X Track quality 99.9 % Test CRC A372EBDC Copy CRC A372EBDC Accurately ripped (confidence 22) [0D8C05CB] (AR v2) Copy OK
9 трек(и) скопированы точно 1 трек(и) не удалось проверить на точность
Some tracks could not be verified as accurate
No errors occurred
End of status report
==== Log checksum E1F2FA45E13E01C8BF6DD2EF5BC3D263491CC6B1AA21B83E3616125AE6EFEBE6 ====

Vladimir Ashkenazy, Andre Previn - Rachmaninov - Piano Concertos (CD6).log

Exact Audio Copy V1.0 beta 6 from 9. April 2015
EAC extraction logfile from 24. May 2015, 12:23
Vladimir Ashkenazy, André Previn / Rachmaninov: Piano Concertos (CD6)
Used drive : Optiarc DVD RW AD-7200S Adapter: 1 ID: 0
Read mode : SecureUtilize accurate stream : YesDefeat audio cache : YesMake use of C2 pointers : No
Read offset correction : 48Overread into Lead-In and Lead-Out : NoFill up missing offset samples with silence : YesDelete leading and trailing silent blocks : NoNull samples used in CRC calculations : YesUsed interface : Native Win32 interface for Win NT & 2000Gap handling : Appended to previous track
Used output format : User Defined EncoderSelected bitrate : 1024 kBit/sQuality : HighAdd ID3 tag : NoCommand line compressor : C:\program files\Monkey's Audio\wapet.exeAdditional command line options : %dest% -t "Genre=%genre%" -t "Artist=%artist%" -t "Title=%title%" -t "Album=%albumtitle%" -t "Year=%year%" -t "Track=%tracknr%" -t "Comment=%comment%" mac.exe %source% %dest% -c4000
TOC of the extracted CD
Track | Start | Length | Start sector | End sector --------------------------------------------------------- 1 | 0:00.32 | 2:58.00 | 32 | 13381 2 | 2:58.32 | 6:40.13 | 13382 | 43394 3 | 9:38.45 | 2:47.37 | 43395 | 55956 4 | 12:26.07 | 3:42.63 | 55957 | 72669 5 | 16:08.70 | 5:15.25 | 72670 | 96319 6 | 21:24.20 | 2:28.00 | 96320 | 107419 7 | 23:52.20 | 5:35.62 | 107420 | 132606 8 | 29:28.07 | 3:00.38 | 132607 | 146144 9 | 32:28.45 | 3:38.37 | 146145 | 162531 10 | 36:07.07 | 11:32.00 | 162532 | 214431 11 | 47:39.07 | 9:21.63 | 214432 | 256569 12 | 57:00.70 | 13:22.25 | 256570 | 316744
Track 1
Filename D:\Music\Sergei Rachmaninov\(1997) Rachmaninov - Piano Concertos\Vladimir Ashkenazy, Andre Previn - Rachmaninov - Piano Concertos (CD6) - 01. Etudes-tableaux op. 39 - No. 1 in C minor.wav
Pre-gap length 0:00:02.32
Peak level 85.5 % Extraction speed 2.4 X Track quality 100.0 % Test CRC F9CE9E4F Copy CRC F9CE9E4F Accurately ripped (confidence 11) [D8C00F67] (AR v2) Copy OK
Track 2
Filename D:\Music\Sergei Rachmaninov\(1997) Rachmaninov - Piano Concertos\Vladimir Ashkenazy, Andre Previn - Rachmaninov - Piano Concertos (CD6) - 02. Etudes-tableaux op. 39 - No. 2 in A minor.wav
Pre-gap length 0:00:01.12
Peak level 55.5 % Extraction speed 2.9 X Track quality 100.0 % Test CRC BA188719 Copy CRC BA188719 Accurately ripped (confidence 11) [7FCE4733] (AR v2) Copy OK
Track 3
Filename D:\Music\Sergei Rachmaninov\(1997) Rachmaninov - Piano Concertos\Vladimir Ashkenazy, Andre Previn - Rachmaninov - Piano Concertos (CD6) - 03. Etudes-tableaux op. 39 - No. 3 in F sharp minor.wav
Pre-gap length 0:00:02.63
Peak level 64.3 % Extraction speed 2.8 X Track quality 100.0 % Test CRC 32C05D80 Copy CRC 32C05D80 Accurately ripped (confidence 11) [04A56396] (AR v2) Copy OK
Track 4
Filename D:\Music\Sergei Rachmaninov\(1997) Rachmaninov - Piano Concertos\Vladimir Ashkenazy, Andre Previn - Rachmaninov - Piano Concertos (CD6) - 04. Etudes-tableaux op. 39 - No. 4 in B minor.wav
Pre-gap length 0:00:01.25
Peak level 65.5 % Extraction speed 3.2 X Track quality 100.0 % Test CRC 748F7B33 Copy CRC 748F7B33 Accurately ripped (confidence 11) [9158E2A4] (AR v2) Copy OK
Track 5
Filename D:\Music\Sergei Rachmaninov\(1997) Rachmaninov - Piano Concertos\Vladimir Ashkenazy, Andre Previn - Rachmaninov - Piano Concertos (CD6) - 05. Etudes-tableaux op. 39 - No. 5 in E flat minor.wav
Pre-gap length 0:00:03.25
Peak level 79.3 % Extraction speed 3.5 X Track quality 100.0 % Test CRC 7CEBEC41 Copy CRC 7CEBEC41 Accurately ripped (confidence 11) [8D5DF55F] (AR v2) Copy OK
Track 6
Filename D:\Music\Sergei Rachmaninov\(1997) Rachmaninov - Piano Concertos\Vladimir Ashkenazy, Andre Previn - Rachmaninov - Piano Concertos (CD6) - 06. Etudes-tableaux op. 39 - No. 6 in A minor.wav
Pre-gap length 0:00:04.50
Peak level 74.3 % Extraction speed 3.2 X Track quality 100.0 % Test CRC 593C6CD1 Copy CRC 593C6CD1 Accurately ripped (confidence 11) [6722C6DE] (AR v2) Copy OK
Track 7
Filename D:\Music\Sergei Rachmaninov\(1997) Rachmaninov - Piano Concertos\Vladimir Ashkenazy, Andre Previn - Rachmaninov - Piano Concertos (CD6) - 07. Etudes-tableaux op. 39 - No. 7 in C minor.wav
Pre-gap length 0:00:04.13
Peak level 83.1 % Extraction speed 3.9 X Track quality 100.0 % Test CRC 7D170239 Copy CRC 7D170239 Accurately ripped (confidence 11) [6C70F5DE] (AR v2) Copy OK
Track 8
Filename D:\Music\Sergei Rachmaninov\(1997) Rachmaninov - Piano Concertos\Vladimir Ashkenazy, Andre Previn - Rachmaninov - Piano Concertos (CD6) - 08. Etudes-tableaux op. 39 - No. 8 in D minor.wav
Pre-gap length 0:00:03.00
Peak level 74.1 % Extraction speed 3.7 X Track quality 100.0 % Test CRC DF699582 Copy CRC DF699582 Accurately ripped (confidence 11) [FF87DD9D] (AR v2) Copy OK
Track 9
Filename D:\Music\Sergei Rachmaninov\(1997) Rachmaninov - Piano Concertos\Vladimir Ashkenazy, Andre Previn - Rachmaninov - Piano Concertos (CD6) - 09. Etudes-tableaux op. 39 - No. 9 in D major.wav
Pre-gap length 0:00:01.38
Peak level 74.9 % Extraction speed 4.0 X Track quality 100.0 % Test CRC AC78B027 Copy CRC AC78B027 Accurately ripped (confidence 11) [6275265F] (AR v2) Copy OK
Track 10
Filename D:\Music\Sergei Rachmaninov\(1997) Rachmaninov - Piano Concertos\Vladimir Ashkenazy, Andre Previn - Rachmaninov - Piano Concertos (CD6) - 10. Symphonic Dances for 2 pianos, op. 45 - I. Non allegro - Lento - Tempo 1.wav
Pre-gap length 0:00:03.25
Peak level 100.0 % Extraction speed 4.8 X Track quality 100.0 % Test CRC 4BB3ABBE Copy CRC 4BB3ABBE Accurately ripped (confidence 11) [7C924021] (AR v2) Copy OK
Track 11
Filename D:\Music\Sergei Rachmaninov\(1997) Rachmaninov - Piano Concertos\Vladimir Ashkenazy, Andre Previn - Rachmaninov - Piano Concertos (CD6) - 11. Symphonic Dances for 2 pianos, op. 45 - II. Andante con moto (Tempo di vlase).wav
Pre-gap length 0:00:04.00
Peak level 74.9 % Extraction speed 5.1 X Track quality 100.0 % Test CRC 11ECCC51 Copy CRC 11ECCC51 Accurately ripped (confidence 11) [5EAE4035] (AR v2) Copy OK
Track 12
Filename D:\Music\Sergei Rachmaninov\(1997) Rachmaninov - Piano Concertos\Vladimir Ashkenazy, Andre Previn - Rachmaninov - Piano Concertos (CD6) - 12. Symphonic Dances for 2 pianos, op. 45 - III. Lento assai - Allegro vivace.wav
Pre-gap length 0:00:04.25
Peak level 100.0 % Extraction speed 5.6 X Track quality 100.0 % Test CRC 32CFABCF Copy CRC 32CFABCF Accurately ripped (confidence 10) [FA9EDE83] (AR v2) Copy OK
All tracks accurately ripped
No errors occurred
End of status report
==== Log checksum 531F50192B34B3CF18AB657B6A8B80B87A45B0C30590FF83BD0C127B69A3B6FB ====

CUEsRachmaninov - Piano Concertos (CD1).cue

REM GENRE ClassicalREM DATE 1997REM DISCID 370ECF06REM COMMENT "ExactAudioCopy v1.0b6"CATALOG 0028942557727PERFORMER "Vladimir Ashkenazy, Andre Previn"TITLE "Rachmaninov: Piano Concertos (CD1)"FILE "Vladimir Ashkenazy, Andre Previn - Rachmaninov - Piano Concertos (CD1) - 01. Piano Concerto No.1 in F sharp minor, Op.1 - 1. Vivace.wav" WAVE TRACK 01 AUDIO TITLE "Piano Concerto No.1 in F sharp minor, Op.1 - 1. Vivace" PERFORMER "Vladimir Ashkenazy, Andre Previn" ISRC GBFO77110781 PREGAP 00:00:33 INDEX 01 00:00:00 TRACK 02 AUDIO TITLE "Piano Concerto No.1 in F sharp minor, Op.1 - 2. Andante" PERFORMER "Vladimir Ashkenazy, Andre Previn" ISRC GBFO77110782 INDEX 00 13:25:08FILE "Vladimir Ashkenazy, Andre Previn - Rachmaninov - Piano Concertos (CD1) - 02. Piano Concerto No.1 in F sharp minor, Op.1 - 2. Andante.wav" WAVE INDEX 01 00:00:00 TRACK 03 AUDIO TITLE "Piano Concerto No.1 in F sharp minor, Op.1 - 3. Allegro vivace" PERFORMER "Vladimir Ashkenazy, Andre Previn" ISRC GBFO77110783 INDEX 00 06:54:01FILE "Vladimir Ashkenazy, Andre Previn - Rachmaninov - Piano Concertos (CD1) - 03. Piano Concerto No.1 in F sharp minor, Op.1 - 3. Allegro vivace.wav" WAVE INDEX 01 00:00:00 TRACK 04 AUDIO TITLE "Piano Concerto No.2 in C minor, Op.18 - 1. Moderato" PERFORMER "Vladimir Ashkenazy, Andre Previn" ISRC GBFO77110111 INDEX 00 07:54:20FILE "Vladimir Ashkenazy, Andre Previn - Rachmaninov - Piano Concertos (CD1) - 04. Piano Concerto No.2 in C minor, Op.18 - 1. Moderato.wav" WAVE INDEX 01 00:00:00 TRACK 05 AUDIO TITLE "Piano Concerto No.2 in C minor, Op.18 - 2. Adagio sostenuto" PERFORMER "Vladimir Ashkenazy, Andre Previn" ISRC GBFO77110112 INDEX 00 11:06:11FILE "Vladimir Ashkenazy, Andre Previn - Rachmaninov - Piano Concertos (CD1) - 05. Piano Concerto No.2 in C minor, Op.18 - 2. Adagio sostenuto.wav" WAVE INDEX 01 00:00:00 TRACK 06 AUDIO TITLE "Piano Concerto No.2 in C minor, Op.18 - 3. Allegro scherzando" PERFORMER "Vladimir Ashkenazy, Andre Previn" ISRC GBFO77110113 INDEX 00 11:52:49FILE "Vladimir Ashkenazy, Andre Previn - Rachmaninov - Piano Concertos (CD1) - 06. Piano Concerto No.2 in C minor, Op.18 - 3. Allegro scherzando.wav" WAVE INDEX 01 00:00:00

Rachmaninov - Piano Concertos (CD2).cue

REM GENRE ClassicalREM DATE 1997REM DISCID 6110F106REM COMMENT "ExactAudioCopy v1.0b6"CATALOG 0028942557826PERFORMER "Vladimir Ashkenazy, Andre Previn"TITLE "Rachmaninov: Piano Concertos (CD2)"FILE "Vladimir Ashkenazy, Andre Previn - Rachmaninov - Piano Concertos (CD2) - 01. Piano Concerto No.3 in D minor, op. 30 - I. Allegro ma non tanto.wav" WAVE TRACK 01 AUDIO TITLE "Piano Concerto No.3 in D minor, op. 30 - I. Allegro ma non tanto" PERFORMER "Vladimir Ashkenazy, Andre Previn" ISRC GBF077110251 PREGAP 00:00:33 INDEX 01 00:00:00 TRACK 02 AUDIO TITLE "Piano Concerto No.3 in D minor, op. 30 - II. Intermezzo- Adagio" PERFORMER "Vladimir Ashkenazy, Andre Previn" ISRC GBF077110252 INDEX 00 18:43:52FILE "Vladimir Ashkenazy, Andre Previn - Rachmaninov - Piano Concertos (CD2) - 02. Piano Concerto No.3 in D minor, op. 30 - II. Intermezzo- Adagio.wav" WAVE INDEX 01 00:00:00FILE "Vladimir Ashkenazy, Andre Previn - Rachmaninov - Piano Concertos (CD2) - 03. Piano Concerto No.3 in D minor, op. 30 - III. Finale (Alla breve).wav" WAVE TRACK 03 AUDIO TITLE "Piano Concerto No.3 in D minor, op. 30 - III. Finale (Alla breve)" PERFORMER "Vladimir Ashkenazy, Andre Previn" ISRC GBF077110253 INDEX 01 00:00:00 TRACK 04 AUDIO TITLE "Piano Concerto No.4 in G minor, op. 40 - I. Allegro vivace (Alla breve)" PERFORMER "Vladimir Ashkenazy, Andre Previn" ISRC GBF077110791 INDEX 00 14:58:37FILE "Vladimir Ashkenazy, Andre Previn - Rachmaninov - Piano Concertos (CD2) - 04. Piano Concerto No.4 in G minor, op. 40 - I. Allegro vivace (Alla breve).wav" WAVE INDEX 01 00:00:00 TRACK 05 AUDIO TITLE "Piano Concerto No.4 in G minor, op. 40 - II. Largo" PERFORMER "Vladimir Ashkenazy, Andre Previn" ISRC GBF077110792 INDEX 00 09:58:24FILE "Vladimir Ashkenazy, Andre Previn - Rachmaninov - Piano Concertos (CD2) - 05. Piano Concerto No.4 in G minor, op. 40 - II. Largo.wav" WAVE INDEX 01 00:00:00FILE "Vladimir Ashkenazy, Andre Previn - Rachmaninov - Piano Concertos (CD2) - 06. Piano Concerto No.4 in G minor, op. 40 - III. Allegro vivace.wav" WAVE TRACK 06 AUDIO TITLE "Piano Concerto No.4 in G minor, op. 40 - III. Allegro vivace" PERFORMER "Vladimir Ashkenazy, Andre Previn" ISRC GBF077110793 INDEX 01 00:00:00

Rachmaninov - Piano Concertos (CD3).cue

REM GENRE ClassicalREM DATE 1997REM DISCID BD12000DREM COMMENT "ExactAudioCopy v1.0b6"CATALOG 0028945523729PERFORMER "Vladimir Ashkenazy, Andre Previn"TITLE "Rachmaninov: Piano Concertos (CD3)"FILE "Vladimir Ashkenazy, Andre Previn - Rachmaninov - Piano Concertos (CD3) - 01. Rhapsody on a Theme of Paganini, op. 43.wav" WAVE TRACK 01 AUDIO TITLE "Rhapsody on a Theme of Paganini, op. 43" PERFORMER "Vladimir Ashkenazy, Andre Previn" ISRC GBF077110121 PREGAP 00:00:32 INDEX 01 00:00:00 TRACK 02 AUDIO TITLE "Piano Sonata No.2 in B flat minor, op. 36 - I. Allegro agitato" PERFORMER "Vladimir Ashkenazy, Andre Previn" ISRC GBF078010011 INDEX 00 23:38:38FILE "Vladimir Ashkenazy, Andre Previn - Rachmaninov - Piano Concertos (CD3) - 02. Piano Sonata No.2 in B flat minor, op. 36 - I. Allegro agitato.wav" WAVE INDEX 01 00:00:00 TRACK 03 AUDIO TITLE "Piano Sonata No.2 in B flat minor, op. 36 - II. Non allegro" PERFORMER "Vladimir Ashkenazy, Andre Previn" ISRC GBF078010012 INDEX 00 10:25:13FILE "Vladimir Ashkenazy, Andre Previn - Rachmaninov - Piano Concertos (CD3) - 03. Piano Sonata No.2 in B flat minor, op. 36 - II. Non allegro.wav" WAVE INDEX 01 00:00:00FILE "Vladimir Ashkenazy, Andre Previn - Rachmaninov - Piano Concertos (CD3) - 04. Piano Sonata No.2 in B flat minor, op. 36 - III. Allegro molto.wav" WAVE TRACK 04 AUDIO TITLE "Piano Sonata No.2 in B flat minor, op. 36 - III. Allegro molto" PERFORMER "Vladimir Ashkenazy, Andre Previn" ISRC GBF078010013 INDEX 01 00:00:00 TRACK 05 AUDIO TITLE "Etudes-tableaux, op. 33 - No.1 in F minor" PERFORMER "Vladimir Ashkenazy, Andre Previn" ISRC GBF077711061 INDEX 00 07:04:50FILE "Vladimir Ashkenazy, Andre Previn - Rachmaninov - Piano Concertos (CD3) - 05. Etudes-tableaux, op. 33 - No.1 in F minor.wav" WAVE INDEX 01 00:00:00 TRACK 06 AUDIO TITLE "Etudes-tableaux, op. 33 - No.2 in C major" PERFORMER "Vladimir Ashkenazy, Andre Previn" ISRC GBF077711062 INDEX 00 02:46:62FILE "Vladimir Ashkenazy, Andre Previn - Rachmaninov - Piano Concertos (CD3) - 06. Etudes-tableaux, op. 33 - No.2 in C major.wav" WAVE INDEX 01 00:00:00 TRACK 07 AUDIO TITLE "Etudes-tableaux, op. 33 - No.3 in C minor" PERFORMER "Vladimir Ashkenazy, Andre Previn" ISRC GBF077711063 INDEX 00 02:35:13FILE "Vladimir Ashkenazy, Andre Previn - Rachmaninov - Piano Concertos (CD3) - 07. Etudes-tableaux, op. 33 - No.3 in C minor.wav" WAVE INDEX 01 00:00:00 TRACK 08 AUDIO TITLE "Etudes-tableaux, op. 33 - No.4 in D minor" PERFORMER "Vladimir Ashkenazy, Andre Previn" ISRC GBF077711064 INDEX 00 04:38:37FILE "Vladimir Ashkenazy, Andre Previn - Rachmaninov - Piano Concertos (CD3) - 08. Etudes-tableaux, op. 33 - No.4 in D minor.wav" WAVE INDEX 01 00:00:00 TRACK 09 AUDIO TITLE "Etudes-tableaux, op. 33 - No.5 in E flat minor" PERFORMER "Vladimir Ashkenazy, Andre Previn" ISRC GBF077711065 INDEX 00 02:40:25FILE "Vladimir Ashkenazy, Andre Previn - Rachmaninov - Piano Concertos (CD3) - 09. Etudes-tableaux, op. 33 - No.5 in E flat minor.wav" WAVE INDEX 01 00:00:00 TRACK 10 AUDIO TITLE "Etudes-tableaux, op. 33 - No.6 in E flat major" PERFORMER "Vladimir Ashkenazy, Andre Previn" ISRC GBF077711066 INDEX 00 01:37:00FILE "Vladimir Ashkenazy, Andre Previn - Rachmaninov - Piano Concertos (CD3) - 10. Etudes-tableaux, op. 33 - No.6 in E flat major.wav" WAVE INDEX 01 00:00:00 TRACK 11 AUDIO TITLE "Etudes-tableaux, op. 33 - No.7 in G minor" PERFORMER "Vladimir Ashkenazy, Andre Previn" ISRC GBF077711067 INDEX 00 01:41:50FILE "Vladimir Ashkenazy, Andre Previn - Rachmaninov - Piano Concertos (CD3) - 11. Etudes-tableaux, op. 33 - No.7 in G minor.wav" WAVE INDEX 01 00:00:00 TRACK 12 AUDIO TITLE "Etudes-tableaux, op. 33 - No.8 in C sharp minor" PERFORMER "Vladimir Ashkenazy, Andre Previn" ISRC GBF077711068 INDEX 00 03:42:50FILE "Vladimir Ashkenazy, Andre Previn - Rachmaninov - Piano Concertos (CD3) - 12. Etudes-tableaux, op. 33 - No.8 in C sharp minor.wav" WAVE INDEX 01 00:00:00 TRACK 13 AUDIO TITLE "Prelude for piano No.1 in C sharp minor ('The Bells of Moscow'), Op.3 no.2" PERFORMER "Vladimir Ashkenazy, Andre Previn" ISRC GBF077540101 INDEX 00 02:43:37FILE "Vladimir Ashkenazy, Andre Previn - Rachmaninov - Piano Concertos (CD3) - 13. Prelude for piano No.1 in C sharp minor (''The Bells of Moscow''), Op.3 no.2.wav" WAVE INDEX 01 00:00:00

Rachmaninov - Piano Concertos (CD4).cue

REM GENRE ClassicalREM DATE 1997REM DISCID 3C11C717REM COMMENT "ExactAudioCopy v1.0b6"CATALOG 0028945523828PERFORMER "Vladimir Ashkenazy, Andre Previn"TITLE "Rachmaninov: Piano Concertos (CD4)"FILE "Vladimir Ashkenazy, Andre Previn - Rachmaninov - Piano Concertos (CD4) - 01. 10 Preludes, op. 23 - No. 1 in F sharp minor.wav" WAVE TRACK 01 AUDIO TITLE "10 Preludes, op. 23 - No. 1 in F sharp minor" PERFORMER "Vladimir Ashkenazy, Andre Previn" ISRC GBF077540102 PREGAP 00:00:32 INDEX 01 00:00:00 TRACK 02 AUDIO TITLE "10 Preludes, op. 23 - No. 2 in B flat major" PERFORMER "Vladimir Ashkenazy, Andre Previn" ISRC GBF077540103 INDEX 00 04:17:25FILE "Vladimir Ashkenazy, Andre Previn - Rachmaninov - Piano Concertos (CD4) - 02. 10 Preludes, op. 23 - No. 2 in B flat major.wav" WAVE INDEX 01 00:00:00 TRACK 03 AUDIO TITLE "10 Preludes, op. 23 - No. 3 in D minor" PERFORMER "Vladimir Ashkenazy, Andre Previn" ISRC GBF077540104 INDEX 00 03:27:25FILE "Vladimir Ashkenazy, Andre Previn - Rachmaninov - Piano Concertos (CD4) - 03. 10 Preludes, op. 23 - No. 3 in D minor.wav" WAVE INDEX 01 00:00:00 TRACK 04 AUDIO TITLE "10 Preludes, op. 23 - No. 4 in D major" PERFORMER "Vladimir Ashkenazy, Andre Previn" ISRC GBF077540105 INDEX 00 04:05:51FILE "Vladimir Ashkenazy, Andre Previn - Rachmaninov - Piano Concertos (CD4) - 04. 10 Preludes, op. 23 - No. 4 in D major.wav" WAVE INDEX 01 00:00:00 TRACK 05 AUDIO TITLE "10 Preludes, op. 23 - No. 5 in G minor" PERFORMER "Vladimir Ashkenazy, Andre Previn" ISRC GBF077540106 INDEX 00 05:30:50FILE "Vladimir Ashkenazy, Andre Previn - Rachmaninov - Piano Concertos (CD4) - 05. 10 Preludes, op. 23 - No. 5 in G minor.wav" WAVE INDEX 01 00:00:00 TRACK 06 AUDIO TITLE "10 Preludes, op. 23 - No. 6 in E flat major" PERFORMER "Vladimir Ashkenazy, Andre Previn" ISRC GBF077540107 INDEX 00 03:48:50FILE "Vladimir Ashkenazy, Andre Previn - Rachmaninov - Piano Concertos (CD4) - 06. 10 Preludes, op. 23 - No. 6 in E flat major.wav" WAVE INDEX 01 00:00:00 TRACK 07 AUDIO TITLE "10 Preludes, op. 23 - No. 7 in C minor" PERFORMER "Vladimir Ashkenazy, Andre Previn" ISRC GBF077540108 INDEX 00 02:57:12FILE "Vladimir Ashkenazy, Andre Previn - Rachmaninov - Piano Concertos (CD4) - 07. 10 Preludes, op. 23 - No. 7 in C minor.wav" WAVE INDEX 01 00:00:00 TRACK 08 AUDIO TITLE "10 Preludes, op. 23 - No. 8 in A flat major" PERFORMER "Vladimir Ashkenazy, Andre Previn" ISRC GBF077540109 INDEX 00 02:24:25FILE "Vladimir Ashkenazy, Andre Previn - Rachmaninov - Piano Concertos (CD4) - 08. 10 Preludes, op. 23 - No. 8 in A flat major.wav" WAVE INDEX 01 00:00:00 TRACK 09 AUDIO TITLE "10 Preludes, op. 23 - No. 9 in E flat minor" PERFORMER "Vladimir Ashkenazy, Andre Previn" ISRC GBF077540110 INDEX 00 03:10:00FILE "Vladimir Ashkenazy, Andre Previn - Rachmaninov - Piano Concertos (CD4) - 09. 10 Preludes, op. 23 - No. 9 in E flat minor.wav" WAVE INDEX 01 00:00:00 TRACK 10 AUDIO TITLE "10 Preludes, op. 23 - No. 10 in G flat major" PERFORMER "Vladimir Ashkenazy, Andre Previn" ISRC GBF077540111 INDEX 00 01:46:62FILE "Vladimir Ashkenazy, Andre Previn - Rachmaninov - Piano Concertos (CD4) - 10. 10 Preludes, op. 23 - No. 10 in G flat major.wav" WAVE INDEX 01 00:00:00 TRACK 11 AUDIO TITLE "13 Preludes, op. 32 - No. 1 in C major" PERFORMER "Vladimir Ashkenazy, Andre Previn" ISRC GBF077540112 INDEX 00 03:53:12FILE "Vladimir Ashkenazy, Andre Previn - Rachmaninov - Piano Concertos (CD4) - 11. 13 Preludes, op. 32 - No. 1 in C major.wav" WAVE INDEX 01 00:00:00 TRACK 12 AUDIO TITLE "13 Preludes, op. 32 - No. 2 in B flat minor" PERFORMER "Vladimir Ashkenazy, Andre Previn" ISRC GBF077540113 INDEX 00 01:16:25FILE "Vladimir Ashkenazy, Andre Previn - Rachmaninov - Piano Concertos (CD4) - 12. 13 Preludes, op. 32 - No. 2 in B flat minor.wav" WAVE INDEX 01 00:00:00 TRACK 13 AUDIO TITLE "13 Preludes, op. 32 - No. 3 in E major" PERFORMER "Vladimir Ashkenazy, Andre Previn" ISRC GBF077540114 INDEX 00 02:52:00FILE "Vladimir Ashkenazy, Andre Previn - Rachmaninov - Piano Concertos (CD4) - 13. 13 Preludes, op. 32 - No. 3 in E major.wav" WAVE INDEX 01 00:00:00 TRACK 14 AUDIO TITLE "13 Preludes, op. 32 - No. 4 in E minor" PERFORMER "Vladimir Ashkenazy, Andre Previn" ISRC GBF077540115 INDEX 00 02:14:25FILE "Vladimir Ashkenazy, Andre Previn - Rachmaninov - Piano Concertos (CD4) - 14. 13 Preludes, op. 32 - No. 4 in E minor.wav" WAVE INDEX 01 00:00:00 TRACK 15 AUDIO TITLE "13 Preludes, op. 32 - No. 5 in G major" PERFORMER "Vladimir Ashkenazy, Andre Previn" ISRC GBF077540116 INDEX 00 05:10:62FILE "Vladimir Ashkenazy, Andre Previn - Rachmaninov - Piano Concertos (CD4) - 15. 13 Preludes, op. 32 - No. 5 in G major.wav" WAVE INDEX 01 00:00:00 TRACK 16 AUDIO TITLE "13 Preludes, op. 32 - No. 6 in F minor" PERFORMER "Vladimir Ashkenazy, Andre Previn" ISRC GBF077540117 INDEX 00 03:16:38FILE "Vladimir Ashkenazy, Andre Previn - Rachmaninov - Piano Concertos (CD4) - 16. 13 Preludes, op. 32 - No. 6 in F minor.wav" WAVE INDEX 01 00:00:00 TRACK 17 AUDIO TITLE "13 Preludes, op. 32 - No. 7 in F major" PERFORMER "Vladimir Ashkenazy, Andre Previn" ISRC GBF077540118 INDEX 00 01:22:00FILE "Vladimir Ashkenazy, Andre Previn - Rachmaninov - Piano Concertos (CD4) - 17. 13 Preludes, op. 32 - No. 7 in F major.wav" WAVE INDEX 01 00:00:00 TRACK 18 AUDIO TITLE "13 Preludes, op. 32 - No. 8 in A minor" PERFORMER "Vladimir Ashkenazy, Andre Previn" ISRC GBF077540119 INDEX 00 02:08:25FILE "Vladimir Ashkenazy, Andre Previn - Rachmaninov - Piano Concertos (CD4) - 18. 13 Preludes, op. 32 - No. 8 in A minor.wav" WAVE INDEX 01 00:00:00 TRACK 19 AUDIO TITLE "13 Preludes, op. 32 - No. 9 in A major" PERFORMER "Vladimir Ashkenazy, Andre Previn" ISRC GBF077540120 INDEX 00 01:43:38FILE "Vladimir Ashkenazy, Andre Previn - Rachmaninov - Piano Concertos (CD4) - 19. 13 Preludes, op. 32 - No. 9 in A major.wav" WAVE INDEX 01 00:00:00 TRACK 20 AUDIO TITLE "13 Preludes, op. 32 - No. 10 in B minor" PERFORMER "Vladimir Ashkenazy, Andre Previn" ISRC GBF077540121 INDEX 00 02:51:50FILE "Vladimir Ashkenazy, Andre Previn - Rachmaninov - Piano Concertos (CD4) - 20. 13 Preludes, op. 32 - No. 10 in B minor.wav" WAVE INDEX 01 00:00:00 TRACK 21 AUDIO TITLE "13 Preludes, op. 32 - No. 11 in B major" PERFORMER "Vladimir Ashkenazy, Andre Previn" ISRC GBF077540122 INDEX 00 05:56:50FILE "Vladimir Ashkenazy, Andre Previn - Rachmaninov - Piano Concertos (CD4) - 21. 13 Preludes, op. 32 - No. 11 in B major.wav" WAVE INDEX 01 00:00:00 TRACK 22 AUDIO TITLE "13 Preludes, op. 32 - No. 12 in G sharp minor" PERFORMER "Vladimir Ashkenazy, Andre Previn" ISRC GBF077540123 INDEX 00 02:03:50FILE "Vladimir Ashkenaz
[teatrix.ru].t9652.torrent 
Торрент: Зарегистрирован [ 2015-10-23 17:11 ] · 2D8B54598CA65579509E2167FF22A206802B833D

Скачать .torrent

Скачать

27 KB

Статус: проверено
Скачан: 0 раз
Размер: 1.44 GB
terms.php



Быстрый ответ

Имя:

      
Для отправки сообщений необходимо включить JavaScript
Показать сообщения:    

Текущее время: 08-Дек 11:01

Часовой пояс: UTC + 3


Вы можете начинать темы
Вы можете отвечать на сообщения
Вы не можете редактировать свои сообщения
Вы не можете удалять свои сообщения
Вы не можете голосовать в опросах
Вы не можете прикреплять файлы к сообщениям
Вы можете скачивать файлы