(Violin) Концерт лауреатов и членов жюри Первого Московского конкурса скрипачей им Паганини - (Н.Мильштейн, P.Sarasate, G.Bizet-Hubay, N.Paganini, П.И.Чайковский, К.Давыдов, F.Kreisler) - 2004, FLAC (image+.cue) lossless


Статистика раздачи [Обновить пиров]
Размер:  453 MB   |    Зарегистрирован:  1 год 1 месяц   |    Скачан:  0 раз

Полного источника не было: Никогда

Личеров:  3  [  0 KB/s  ]   Подробная статистика пиров
 
   
 
 
 

[Цитировать]

Концерт лауреатов и членов жюри Первого Московского конкурса скрипачей им Паганини
Жанр: Violin
Страна-производитель диска: Россия
Год издания диска: 2004
Издатель (лейбл): Фонд Скрипичного Искусства
Дата записи: 2003
Аудиокодек: FLAC
Тип рипа: image+.cue
Битрейт аудио: lossless
Продолжительность: 01:16:01
Источник: собственный рип
Наличие сканов в содержимом раздачи: да
Треклист:
1. Паганиниана Н.Мильштейн - 08:56
2. Цыганские напевы П.Сарасате - 07:59
3. Фантазия на темы из оперы Кармен Жорж Бизе -Хубай - 09:09
4. Прекрасная Мельничиха Николо Паганини - 10:19
5. Адажио из балета Щелкунчик Петр Чайковский - 05:33
6. Фантазия на русские темы К.Давыдов - 13:28
7. Фрагмент Концерта Вальс Муки любви Фриц Крейслер - Вальс Прекрасный розмарин Ф.Крейслер - 14:13
8. Концерт №1 для скрипки с оркестром, соч. 6, Adagio Expressivo Н.Паганини - 06:28
Исполнители:
Лена Семенова (1 премия)
Надежда Токарева (2 премия)
Евгений Свиридов (3 премия)
Максим Федотов и Галина Петрова (фортепияно)
Александр Рудин и Виктор Гинзбург (концертмейстер)
Иври Гитлис и Валентина Василенко (концертмейстер)
Сергей Стадлер
В Концерте принимает участие Камерный оркестр Московской государственной консерватории им. П.И. Чайковского
Ведущий концерта Заслуженный деятель искусств Российской Федерации Святослав Бэлза

Лог создания рипа

Exact Audio Copy V1.0 beta 6 from 9. April 2015
Отчёт EAC об извлечении, выполненном 23. июня 2015, 22:03
- / Концерт лауреатов и членов жюри Первого Московского конкурса скрипачей им. Паганини
Дисковод: ASUS DRW-24B5ST Adapter: 1 ID: 0
Режим чтения : ДостоверностьИспользование точного потока : ДаОтключение кэша аудио : ДаИспользование указателей C2 : Нет
Коррекция смещения при чтении : 6Способность читать области Lead-in и Lead-out : НетЗаполнение пропущенных сэмплов тишиной : ДаУдаление блоков с тишиной в начале и конце : НетПри вычислениях CRC использовались нулевые сэмплы : ДаИнтерфейс : Встроенный Win32-интерфейс для Win NT/2000
Выходной формат : Пользовательский кодировщикВыбранный битрейт : 128 kBit/sКачество : ВысокийДобавление ID3-тега : НетУтилита сжатия : C:\Program Files (x86)\Exact Audio Copy\flac-1.3.1-win\win64\flac.exeДополнительные параметры : -V -8 -T "Date=%year%" -T "Genre=%genre%" %source%
TOC извлечённого CD
Трек | Старт | Длительность | Начальный сектор | Конечный сектор --------------------------------------------------------------------- 1 | 0:00.00 | 8:55.63 | 0 | 40187 2 | 8:55.63 | 7:58.05 | 40188 | 76042 3 | 16:53.68 | 9:08.50 | 76043 | 117192 4 | 26:02.43 | 10:18.14 | 117193 | 163556 5 | 36:20.57 | 5:32.46 | 163557 | 188502 6 | 41:53.28 | 13:27.37 | 188503 | 249064 7 | 55:20.65 | 14:12.30 | 249065 | 312994 8 | 69:33.20 | 6:27.13 | 312995 | 342032
Характеристики диапазона извлечения и сообщения об ошибках
Выбранный диапазон
Имя файла C:\Users\Тарик\Music\Концерт лауреатов и членов Жюри Первого Московского конкурса скрипачей имени Паганини\Концерт лауреатов и членов жюри Первого Московского конкурса скрипачей им. Паганини.wav
Пиковый уровень 97.8 % Скорость извлечения 3.7 X Качество диапазона 100.0 % CRC теста 77CC5753 CRC копии 77CC5753 Копирование... OK
Ошибок не произошло
Конец отчёта
==== Контрольная сумма отчёта 3B39463A528BD192A9A106C951D297437F73113B6D52926ECB70AEEF472344B6 ====

Содержание индексной карты (.CUE)

REM GENRE ClassicalREM DATE 2004REM DISCID 5D11D008REM COMMENT "ExactAudioCopy v1.0b6"PERFORMER ""TITLE "Концерт лауреатов и членов жюри Первого Московского конкурса скрипачей им. Па..."FILE "Концерт лауреатов и членов жюри Первого Московского конкурса скрипачей им. Паганини.flac" WAVE TRACK 01 AUDIO TITLE "Паганиниана Н.Мильштейн" PERFORMER "Лена Семенова (1 премия)" ISRC RUA320400228 INDEX 01 00:00:00 TRACK 02 AUDIO TITLE "Цыганские напевы П.Сарасате" PERFORMER "Лена Семенова (1 премия)" ISRC RUA320400229 INDEX 01 08:55:63 TRACK 03 AUDIO TITLE "Фантазия на темы из оперы Кармен Ж.Бизе-Хубай" PERFORMER "Надежда Токарева (2 премия)" ISRC RUA320400230 INDEX 01 16:53:68 TRACK 04 AUDIO TITLE "Прекрасная Мельничиха Н.Паганини" PERFORMER "Евгений Свиридов (3 премия)" ISRC RUA320400231 INDEX 01 26:02:43 TRACK 05 AUDIO TITLE "Адажио из балета Щелкунчик П.И.Чайковский" PERFORMER "Максим Федотов и Галина Петрова (фортепияно)" ISRC RUA320400232 INDEX 01 36:20:57 TRACK 06 AUDIO TITLE "Фантазия на русские темы К.Давыдов" PERFORMER "Александр Рудин и Виктор Гинзбург (концертмейстер)" ISRC RUA320400233 INDEX 01 41:53:28 TRACK 07 AUDIO TITLE "фрагмент Концерта Вальс Муки любви Ф.Крейслер - Вальс Прекрасный розмарин Ф.К..." PERFORMER "Иври Гитлис и Валентина Василенко (концертмейстер)" ISRC RUA320400234 INDEX 01 55:20:65 TRACK 08 AUDIO TITLE "Концерт №1 для скрипки с оркестром, соч. 6, Adagio Expressivo Н.Паганини" PERFORMER "Сергей Стадлер" ISRC RUA320400237 INDEX 01 69:33:20

Лог проверки качества

AUDIOCHECKER v2.0 beta (build 457) - by Dester - opdester@freemail.hu~~~~~~~~~~~~~~~~~~~~~~~~~~~~~~~~~~
Started at: вторник, 23. 06. 2015. - 10:49.0669 files found
01 -===- C:\Users\Тарик\Music\Grigory Sokolov - Complete Recordings\Bach\G. Sokolo-----------------------------------------------------------
Started at: вторник, 23. 06. 2015. - 10:51.491 file found
1 -===- C:\Users\Тарик\Music\Русский праздник\Russian Celebration.flac Extracted successfully Conclusion: this track is CDDA with probability 100% Tempfile successfully deleted.
Finished at: вторник, 23. 06. 2015. - 10:53.46 (operation time: 0:01.57)
-----------------------------------------------------------
Started at: вторник, 23. 06. 2015. - 16:58.291 file found
1 -===- C:\Users\Тарик\Music\Лена Семенова Первая премия Первого Московского конкурса скрипачей имени Паганини\Lena_Semenova.flac Extracted successfully Conclusion: this track is MPEG with probability 90% Tempfile successfully deleted.
Finished at: вторник, 23. 06. 2015. - 17:01.00 (operation time: 0:02.30)
-----------------------------------------------------------
Started at: вторник, 23. 06. 2015. - 17:15.301 file found
1 -===- C:\Users\Тарик\Music\Лена Семёнова Первая премия Первого Московского конкурса скрипачей имени Паганини\Lena_Semenova.flac Extracted successfully Conclusion: this track is MPEG with probability 90% Tempfile successfully deleted.
Finished at: вторник, 23. 06. 2015. - 17:17.45 (operation time: 0:02.14)
-----------------------------------------------------------
Started at: вторник, 23. 06. 2015. - 17:18.411 file found
1 -===- C:\Users\Тарик\Music\Лена Семёнова Первая премия Первого Московского конкурса скрипачей имени Паганини\Lena_Semenova.flac Extracted successfully Conclusion: this track is MPEG with probability 90% Tempfile successfully deleted.
Finished at: вторник, 23. 06. 2015. - 17:20.57 (operation time: 0:02.15)
-----------------------------------------------------------
Started at: вторник, 23. 06. 2015. - 17:23.131 file found
1 -===- C:\Users\Тарик\Music\Лена Семёнова Первая премия Первого Московского конкурса скрипачей имени Паганини\Lena_Semenova.flac Extracted successfully Conclusion: this track is MPEG with probability 90% Tempfile successfully deleted.
Finished at: вторник, 23. 06. 2015. - 17:25.28 (operation time: 0:02.14)
-----------------------------------------------------------
Started at: вторник, 23. 06. 2015. - 17:35.291 file found
1 -===- C:\Users\Тарик\Music\Концерт лауреатов и членов Жюри Первого Московского конкурса скрипачей имени Паганини\Concert_of_prizewinners_and_Jury_members.flac Extracted successfully Conclusion: this track is CDDA with probability 100% Tempfile successfully deleted.
Finished at: вторник, 23. 06. 2015. - 17:38.29 (operation time: 0:02.59)
-----------------------------------------------------------
Started at: вторник, 23. 06. 2015. - 20:01.161 file found
1 -===- C:\Users\Тарик\Music\Лена Семёнова Первая премия Первого Московского конкурса скрипачей имени Паганини\Лена Семёнова - Первый Московский конкурс скрипачей имени паганини.flac Extracted successfully Conclusion: this track is MPEG with probability 91% Tempfile successfully deleted.
Finished at: вторник, 23. 06. 2015. - 20:03.45 (operation time: 0:02.29)
-----------------------------------------------------------
Started at: вторник, 23. 06. 2015. - 20:05.181 file found
1 -===- C:\Users\Тарик\Music\Лена Семёнова Первая премия Первого Московского конкурса скрипачей имени Паганини\Лена Семёнова - Первый Московский конкурс скрипачей имени паганини.flac Extracted successfully Conclusion: this track is MPEG with probability 91% Tempfile successfully deleted.
Finished at: вторник, 23. 06. 2015. - 20:07.42 (operation time: 0:02.23)
-----------------------------------------------------------
Started at: вторник, 23. 06. 2015. - 22:29.431 file found
1 -===- C:\Users\Тарик\Music\Концерт лауреатов и членов Жюри Первого Московского конкурса скрипачей имени Паганини\Концерт лауреатов и членов жюри Первого Московского конкурса скрипачей им. Паганини.flac Extracted successfully Conclusion: this track is CDDA with probability 100% Tempfile successfully deleted.
Finished at: вторник, 23. 06. 2015. - 22:32.41 (operation time: 0:02.58)
-----------------------------------------------------------
Started at: среда, 24. 06. 2015. - 9:44.511 file found
1 -===- C:\Users\Тарик\Music\Георгий Свиридов\Романтическая классика\Георгий Свиридов Романтическая Классика.flac Extracted successfully Conclusion: this track is CDDA with probability 100% Tempfile successfully deleted.
Finished at: среда, 24. 06. 2015. - 9:48.01 (operation time: 0:03.09)
-----------------------------------------------------------
Started at: среда, 24. 06. 2015. - 18:05.181 file found
1 -===- C:\Users\Тарик\Music\Концерт лауреатов и членов Жюри Первого Московского конкурса скрипачей имени Паганини\Концерт лауреатов и членов жюри Первого Московского конкурса скрипачей им. Паганини.flac Extracted successfully Conclusion: this track is CDDA with probability 100% Tempfile successfully deleted.
Finished at: среда, 24. 06. 2015. - 18:08.39 (operation time: 0:03.20)
[teatrix.ru].t9654.torrent 
Торрент: Зарегистрирован [ 2015-10-23 17:11 ] · 173E9FED6ACF4E233D1627DA5491746FEA37CE03

Скачать .torrent

Скачать

19 KB

Статус: проверено
Скачан: 0 раз
Размер: 453 MB
terms.php



Быстрый ответ

Имя:

      
Для отправки сообщений необходимо включить JavaScript
Показать сообщения:    

Текущее время: 04-Дек 06:55

Часовой пояс: UTC + 3


Вы можете начинать темы
Вы можете отвечать на сообщения
Вы не можете редактировать свои сообщения
Вы не можете удалять свои сообщения
Вы не можете голосовать в опросах
Вы не можете прикреплять файлы к сообщениям
Вы можете скачивать файлы