(Violin) Лена Семёнова Первая премия Первого Московского конкурса скрипачей им Паганини - (J.S.Bach, Н.Мильштейн, E.Ysaye, E.Chausson, N.Paganini, P.Sarasate) - 2004, FLAC (image+.cue) lossless


Статистика раздачи [Обновить пиров]
Размер:  287 MB   |    Зарегистрирован:  1 год 1 месяц   |    Скачан:  0 раз

Полного источника не было: Никогда

Личеров:  3  [  0 KB/s  ]   Подробная статистика пиров
 
   
 
 
 

[Цитировать]

Лена Семёнова Первая премия Первого Московского конкурса скрипачей им Паганини
Жанр: Violin
Страна-производитель диска: Россия
Год издания диска: 2004
Издатель (лейбл): Фонд Скрипичного Искусства
Дата записи: 2003
Аудиокодек: FLAC
Тип рипа: image+.cue
Битрейт аудио: lossless
Продолжительность: 59:45
Источник: собственный рип
Наличие сканов в содержимом раздачи: да
Треклист:
1. Адажио и фуга из сонаты №3 до мажор И.-С.Бах - 17:12
2. Паганиниана для скрипки соло Н.Мильштейн - 08:20
3. Мазурка №3 Э.Изаи - 05:22
4. Поэма, соч. 25 Э.Шоссон - 15:55
5. Каприс №24 для скрипки соло Н.Паганини - 04:56
6. Цыганские напевы, соч. 20 П.Сарасате - 08:02
Исполнители:
Лена Семёнова - скрипка.
3. Аккомпаниатор В.Л. Гинзбург.
4, 6. В сопровождении Московского симфонического оркестра под управлением заслуженного деятеля искусств России В.П. Зивы.

Содержание индексной карты (.CUE)

REM GENRE ClassicalREM DATE 2004REM DISCID 3C0E0006REM COMMENT "ExactAudioCopy v1.0b6"PERFORMER "Лена Семёнова"TITLE "Первый Московский конкурс скрипачей имени паганини"FILE "Лена Семёнова - Первый Московский конкурс скрипачей имени паганини.flac" WAVE TRACK 01 AUDIO TITLE "Адажио и фуга из сонаты №3 до мажор И.-С.Бах" PERFORMER "Лена Семёнова" FLAGS DCP INDEX 01 00:00:00 TRACK 02 AUDIO TITLE "Паганиниана для скрипки соло Н.Мильштейн" PERFORMER "Лена Семёнова" FLAGS DCP INDEX 01 17:11:50 TRACK 03 AUDIO TITLE "Мазурка №3 Э.Изаи" PERFORMER "Лена Семёнова" FLAGS DCP INDEX 01 25:31:43 TRACK 04 AUDIO TITLE "Поэма, соч. 25 Э.Шоссон" PERFORMER "Лена Семёнова" FLAGS DCP INDEX 01 30:53:21 TRACK 05 AUDIO TITLE "Каприс №24 для скрипки соло Н.Паганини" PERFORMER "Лена Семёнова" FLAGS DCP INDEX 01 46:48:07 TRACK 06 AUDIO TITLE "Цыганские напевы, соч. 20 П.Сарасате" PERFORMER "Лена Семёнова" FLAGS DCP INDEX 01 51:43:28

Лог создания рипа

Exact Audio Copy V1.0 beta 6 from 9. April 2015
Отчёт EAC об извлечении, выполненном 23. июня 2015, 19:59
Лена Семёнова / Первый Московский конкурс скрипачей имени паганини
Дисковод: ASUS DRW-24B5ST Adapter: 1 ID: 0
Режим чтения : ДостоверностьИспользование точного потока : ДаОтключение кэша аудио : ДаИспользование указателей C2 : Нет
Коррекция смещения при чтении : 6Способность читать области Lead-in и Lead-out : НетЗаполнение пропущенных сэмплов тишиной : ДаУдаление блоков с тишиной в начале и конце : НетПри вычислениях CRC использовались нулевые сэмплы : ДаИнтерфейс : Встроенный Win32-интерфейс для Win NT/2000
Выходной формат : Пользовательский кодировщикВыбранный битрейт : 128 kBit/sКачество : ВысокийДобавление ID3-тега : НетУтилита сжатия : C:\Program Files (x86)\Exact Audio Copy\flac-1.3.1-win\win64\flac.exeДополнительные параметры : -V -8 -T "Date=%year%" -T "Genre=%genre%" %source%
TOC извлечённого CD
Трек | Старт | Длительность | Начальный сектор | Конечный сектор --------------------------------------------------------------------- 1 | 0:00.00 | 17:11.50 | 0 | 77374 2 | 17:11.50 | 8:19.68 | 77375 | 114867 3 | 25:31.43 | 5:21.53 | 114868 | 138995 4 | 30:53.21 | 15:54.61 | 138996 | 210606 5 | 46:48.07 | 4:55.21 | 210607 | 232752 6 | 51:43.28 | 8:01.21 | 232753 | 268848
Характеристики диапазона извлечения и сообщения об ошибках
Выбранный диапазон
Имя файла C:\Users\Тарик\Music\Лена Семёнова Первая премия Первого Московского конкурса скрипачей имени Паганини\Лена Семёнова - Первый Московский конкурс скрипачей имени паганини.wav
Пиковый уровень 96.0 % Скорость извлечения 9.2 X Качество диапазона 100.0 % CRC теста ABD29197 CRC копии ABD29197 Копирование... OK
Ошибок не произошло
Конец отчёта
==== Контрольная сумма отчёта 16D7D303F1E26764319B9345C44F4DC0541A9E692479350CD11AEC848F1E6EF0 ====

Лог проверки качества

AUDIOCHECKER v2.0 beta (build 457) - by Dester - opdester@freemail.hu~~~~~~~~~~~~~~~~~~~~~~~~~~~~~~~~~~
Started at: вторник, 23. 06. 2015. - 10:49.0669 files found
01 -===- C:\Users\Тарик\Music\Grigory Sokolov - Complete Recordings\Bach\G. Sokolo-----------------------------------------------------------
Started at: вторник, 23. 06. 2015. - 10:51.491 file found
1 -===- C:\Users\Тарик\Music\Русский праздник\Russian Celebration.flac Extracted successfully Conclusion: this track is CDDA with probability 100% Tempfile successfully deleted.
Finished at: вторник, 23. 06. 2015. - 10:53.46 (operation time: 0:01.57)
-----------------------------------------------------------
Started at: вторник, 23. 06. 2015. - 16:58.291 file found
1 -===- C:\Users\Тарик\Music\Лена Семенова Первая премия Первого Московского конкурса скрипачей имени Паганини\Lena_Semenova.flac Extracted successfully Conclusion: this track is MPEG with probability 90% Tempfile successfully deleted.
Finished at: вторник, 23. 06. 2015. - 17:01.00 (operation time: 0:02.30)
-----------------------------------------------------------
Started at: вторник, 23. 06. 2015. - 17:15.301 file found
1 -===- C:\Users\Тарик\Music\Лена Семёнова Первая премия Первого Московского конкурса скрипачей имени Паганини\Lena_Semenova.flac Extracted successfully Conclusion: this track is MPEG with probability 90% Tempfile successfully deleted.
Finished at: вторник, 23. 06. 2015. - 17:17.45 (operation time: 0:02.14)
-----------------------------------------------------------
Started at: вторник, 23. 06. 2015. - 17:18.411 file found
1 -===- C:\Users\Тарик\Music\Лена Семёнова Первая премия Первого Московского конкурса скрипачей имени Паганини\Lena_Semenova.flac Extracted successfully Conclusion: this track is MPEG with probability 90% Tempfile successfully deleted.
Finished at: вторник, 23. 06. 2015. - 17:20.57 (operation time: 0:02.15)
-----------------------------------------------------------
Started at: вторник, 23. 06. 2015. - 17:23.131 file found
1 -===- C:\Users\Тарик\Music\Лена Семёнова Первая премия Первого Московского конкурса скрипачей имени Паганини\Lena_Semenova.flac Extracted successfully Conclusion: this track is MPEG with probability 90% Tempfile successfully deleted.
Finished at: вторник, 23. 06. 2015. - 17:25.28 (operation time: 0:02.14)
-----------------------------------------------------------
Started at: вторник, 23. 06. 2015. - 17:35.291 file found
1 -===- C:\Users\Тарик\Music\Концерт лауреатов и членов Жюри Первого Московского конкурса скрипачей имени Паганини\Concert_of_prizewinners_and_Jury_members.flac Extracted successfully Conclusion: this track is CDDA with probability 100% Tempfile successfully deleted.
Finished at: вторник, 23. 06. 2015. - 17:38.29 (operation time: 0:02.59)
-----------------------------------------------------------
Started at: вторник, 23. 06. 2015. - 20:01.161 file found
1 -===- C:\Users\Тарик\Music\Лена Семёнова Первая премия Первого Московского конкурса скрипачей имени Паганини\Лена Семёнова - Первый Московский конкурс скрипачей имени паганини.flac Extracted successfully Conclusion: this track is MPEG with probability 91% Tempfile successfully deleted.
Finished at: вторник, 23. 06. 2015. - 20:03.45 (operation time: 0:02.29)
-----------------------------------------------------------
Started at: вторник, 23. 06. 2015. - 20:05.181 file found
1 -===- C:\Users\Тарик\Music\Лена Семёнова Первая премия Первого Московского конкурса скрипачей имени Паганини\Лена Семёнова - Первый Московский конкурс скрипачей имени паганини.flac Extracted successfully Conclusion: this track is MPEG with probability 91% Tempfile successfully deleted.
Finished at: вторник, 23. 06. 2015. - 20:07.42 (operation time: 0:02.23)
[teatrix.ru].t9655.torrent 
Торрент: Зарегистрирован [ 2015-10-23 17:11 ] · E6DA8E66337CA2535FC498D08064DBFC9040B0D3

Скачать .torrent

Скачать

12 KB

Статус: проверено
Скачан: 0 раз
Размер: 287 MB
terms.php



Быстрый ответ

Имя:

      
Для отправки сообщений необходимо включить JavaScript
Показать сообщения:    

Текущее время: 03-Дек 16:46

Часовой пояс: UTC + 3


Вы можете начинать темы
Вы можете отвечать на сообщения
Вы не можете редактировать свои сообщения
Вы не можете удалять свои сообщения
Вы не можете голосовать в опросах
Вы не можете прикреплять файлы к сообщениям
Вы можете скачивать файлы