(Classical) Geirr Tveitt - Concertos for Hardanger Fiddle; Nykken - Arve Moen Bergset, Stavanger Symphony Orchestra, Ole Kristian Ruud - 2002, FLAC (image+.cue) lossless


Статистика раздачи [Обновить пиров]
Размер:  268 MB   |    Зарегистрирован:  1 год 1 месяц   |    Скачан:  0 раз

Полного источника не было: Никогда

Личеров:  2  [  0 KB/s  ]   Подробная статистика пиров
 
   
 
 
 

[Цитировать]

Geirr Tveitt - Concertos for Hardanger Fiddle; Nykken - Arve Moen Bergset, Stavanger Symphony Orchestra, Ole Kristian Ruud
Жанр: Classical
Страна-производитель диска: Sweden
Год издания диска: 2002
Издатель (лейбл): BIS
Номер по каталогу: BIS-CD-1207
Дата записи: 1999, 2000
Аудиокодек: FLAC
Тип рипа: image+.cue
Битрейт аудио: lossless
Продолжительность: 65:18
Источник: собственный рип
Наличие сканов в содержимом раздачи: да
Треклист:
Geirr Tveitt (1908-1981)
[1]-[3] Concerto No.1 for Hardanger Fiddle and Orchestra, Op. 163 (1955)
[4]-[6] Concerto No.2 for Hardanger Fiddle and Orchestra, Op. 252, ‘Three Fjords’ (1965)
[7] Nykken, symphonic painting for orchestra, Op. 187 (1956)
Исполнители:
Arve Moen Bergset Hardanger fiddle ([1]-[6])
Stavanger Symphony Orchestra
Ole Kristian Ruud
conductor

Лог создания рипа

Exact Audio Copy V1.0 beta 3 from 29. August 2011
EAC extraction logfile from 18. January 2015, 1:18
Arve Moen Bergset, Stavanger Symphony Orchestra, Ole Kristian Ruud / Tveitt - Concertos for Hardanger Fiddle
Used drive : HL-DT-STDVDRAM GU70N Adapter: 0 ID: 0
Read mode : SecureUtilize accurate stream : YesDefeat audio cache : YesMake use of C2 pointers : No
Read offset correction : 48Overread into Lead-In and Lead-Out : NoFill up missing offset samples with silence : YesDelete leading and trailing silent blocks : NoNull samples used in CRC calculations : YesUsed interface : Native Win32 interface for Win NT & 2000
Used output format : User Defined EncoderSelected bitrate : 128 kBit/sQuality : HighAdd ID3 tag : NoCommand line compressor : C:\Program Files (x86)\Exact Audio Copy\Flac\flac.exeAdditional command line options : -V -8 -T "Date=%year%" -T "Genre=%genre%" %source%
TOC of the extracted CD
Track | Start | Length | Start sector | End sector --------------------------------------------------------- 1 | 0:00.00 | 10:22.70 | 0 | 46719 2 | 10:22.70 | 9:45.67 | 46720 | 90661 3 | 20:08.62 | 9:30.25 | 90662 | 133436 4 | 29:39.12 | 4:38.15 | 133437 | 154301 5 | 34:17.27 | 4:43.13 | 154302 | 175539 6 | 39:00.40 | 9:43.32 | 175540 | 219296 7 | 48:43.72 | 16:32.03 | 219297 | 293699
Range status and errors
Selected range
Filename C:\temp\BIS-CD-1207 - Tveitt - Concertos for Hardanger Fiddle\Tveitt - Concertos for Hardanger Fiddle.wav
Peak level 99.9 % Extraction speed 2.1 X Range quality 100.0 % Test CRC B2C304B2 Copy CRC B2C304B2 Copy OK
No errors occurred
AccurateRip summary
Track 1 accurately ripped (confidence 2) [170A8A3B] (AR v1)Track 2 accurately ripped (confidence 2) [50643DE3] (AR v1)Track 3 accurately ripped (confidence 2) [B8A41789] (AR v1)Track 4 accurately ripped (confidence 2) [59722452] (AR v1)Track 5 accurately ripped (confidence 2) [E6AD0E4A] (AR v1)Track 6 accurately ripped (confidence 2) [5070C808] (AR v1)Track 7 accurately ripped (confidence 2) [5F6165FB] (AR v1)
All tracks accurately ripped
End of status report
==== Log checksum 6F91E167D0B25181287596852F3CCEFC8A95DE0FFE7EB7DE5DCDE854B304CC9E ====
[teatrix.ru].t9656.torrent 
Торрент: Зарегистрирован [ 2015-10-23 17:11 ] · FD7FDADDE2E1EAD1C3ADC1CD24218A3910FA1EA6

Скачать .torrent

Скачать

22 KB

Статус: проверено
Скачан: 0 раз
Размер: 268 MB
terms.php



Быстрый ответ

Имя:

      
Для отправки сообщений необходимо включить JavaScript
Показать сообщения:    

Текущее время: 11-Дек 11:02

Часовой пояс: UTC + 3


Вы можете начинать темы
Вы можете отвечать на сообщения
Вы не можете редактировать свои сообщения
Вы не можете удалять свои сообщения
Вы не можете голосовать в опросах
Вы не можете прикреплять файлы к сообщениям
Вы можете скачивать файлы