(Classical) Sean Hickey - Cello Concerto; Clarinet Concerto - Дмитрий Коузов, Alexander Fiterstein, Санкт-Петербургский государственный академический симфонический оркестр, Владимир Ланде - 2013, FLAC (image+.cue) lossless


Статистика раздачи [Обновить пиров]
Размер:  207 MB   |    Зарегистрирован:  1 год 1 месяц   |    Скачан:  0 раз

Полного источника не было: Никогда

Личеров:  3  [  0 KB/s  ]   Подробная статистика пиров
 
   
 
 
 

[Цитировать]

Sean Hickey - Cello Concerto; Clarinet Concerto - Дмитрий Коузов, Alexander Fiterstein, Санкт-Петербургский государственный академический симфонический оркестр, Владимир Ланде
Жанр: Classical
Страна-производитель диска: USA
Год издания диска: 2013
Издатель (лейбл): Delos
Номер по каталогу: DE 3448
Дата записи: 2013
Аудиокодек: FLAC
Тип рипа: image+.cue
Битрейт аудио: lossless
Продолжительность: 49:18
Источник: собственный рип
Наличие сканов в содержимом раздачи: да
Треклист:
Sean Hickey (b.1970)
[1]-[3] Concerto for Cello and Orchestra
[4]-[6] Concerto for Clarinet and Orchestra
Исполнители:
Дмитрий Коузов cello
Alexander Fiterstein clarinet
Санкт-Петербургский государственный академический симфонический оркестр
Владимир Ланде

Лог создания рипа

Exact Audio Copy V1.0 beta 3 from 29. August 2011
EAC extraction logfile from 18. January 2015, 20:37
St.Petersburg State SO, Vladimir Lande / Sean Hickey - Concertos
Used drive : HL-DT-STDVDRAM GU70N Adapter: 0 ID: 0
Read mode : SecureUtilize accurate stream : YesDefeat audio cache : YesMake use of C2 pointers : No
Read offset correction : 48Overread into Lead-In and Lead-Out : NoFill up missing offset samples with silence : YesDelete leading and trailing silent blocks : NoNull samples used in CRC calculations : YesUsed interface : Native Win32 interface for Win NT & 2000
Used output format : User Defined EncoderSelected bitrate : 128 kBit/sQuality : HighAdd ID3 tag : NoCommand line compressor : C:\Program Files (x86)\Exact Audio Copy\Flac\flac.exeAdditional command line options : -V -8 -T "Date=%year%" -T "Genre=%genre%" %source%
TOC of the extracted CD
Track | Start | Length | Start sector | End sector --------------------------------------------------------- 1 | 0:00.00 | 8:32.64 | 0 | 38463 2 | 8:32.64 | 8:39.05 | 38464 | 77393 3 | 17:11.69 | 10:18.21 | 77394 | 123764 4 | 27:30.15 | 6:53.74 | 123765 | 154813 5 | 34:24.14 | 6:20.31 | 154814 | 183344 6 | 40:44.45 | 8:31.45 | 183345 | 221714
Range status and errors
Selected range
Filename C:\temp\Hickey - Concertos\Hickey - Concertos.wav
Peak level 100.0 % Extraction speed 4.9 X Range quality 100.0 % Test CRC 3CCC6B62 Copy CRC 3CCC6B62 Copy OK
No errors occurred
AccurateRip summary
Track 1 accurately ripped (confidence 1) [89945DD4] (AR v2)Track 2 accurately ripped (confidence 1) [819E2BB9] (AR v2)Track 3 accurately ripped (confidence 1) [EF8B4F24] (AR v2)Track 4 accurately ripped (confidence 1) [E3BA1D81] (AR v2)Track 5 accurately ripped (confidence 1) [3E4572A3] (AR v2)Track 6 accurately ripped (confidence 1) [5B418C10] (AR v2)
All tracks accurately ripped
End of status report
==== Log checksum E68199D5CBC5B7DD2BABA21DE7AACCA97247ECC527DA2973252328DE6F3C2271 ====
[teatrix.ru].t9657.torrent 
Торрент: Зарегистрирован [ 2015-10-23 17:11 ] · 04D36EA93F2BD95343B3C9208AC6F25B0E6BE0DC

Скачать .torrent

Скачать

33 KB

Статус: проверено
Скачан: 0 раз
Размер: 207 MB
terms.php



Быстрый ответ

Имя:

      
Для отправки сообщений необходимо включить JavaScript
Показать сообщения:    

Текущее время: 04-Дек 19:17

Часовой пояс: UTC + 3


Вы можете начинать темы
Вы можете отвечать на сообщения
Вы не можете редактировать свои сообщения
Вы не можете удалять свои сообщения
Вы не можете голосовать в опросах
Вы не можете прикреплять файлы к сообщениям
Вы можете скачивать файлы