(Classical) Julian Lloyd Webber, English Chamber Orchestra, Nicholas Cleobury - Travels with My Cello {Римский-Корсаков, Lehar, Debussy, Schumann, Albeniz, Strauss, Albinoni, Хачатурян, etc.} - 1984, FLAC (tracks+.cue), lossless


Статистика раздачи [Обновить пиров]
Размер:  160 MB   |    Зарегистрирован:  1 год 2 месяца   |    Скачан:  0 раз

Полного источника не было: Никогда

Личеров:  1  [  0 KB/s  ]   Подробная статистика пиров
 
   
 
 
 

[Цитировать]

Julian Lloyd Webber - Travels with My Cello
Жанр: Classical
Страна-производитель диска: Германия
Год издания диска: 1984
Издатель (лейбл): Philips
Номер по каталогу: 412 231-2
Аудиокодек: FLAC
Тип рипа: tracks+.cue
Битрейт аудио: lossless
Продолжительность: 39:26
Источник (релизер): osprey17 (what)
Наличие сканов в содержимом раздачи: нет
Треклист:
01. Nicolai Rimsky-Korsakov: The Flight of the Bumble-bee (1:17)
02. Franz Lehar: Vilja-Lied (2:28)
03. Claude Debussy: Golliwogg's Cake-walk (3:34)
04. Robert Schumann: Traumerei (3:37)
05. Isaac Albeniz: Puerta de tierra (3:17)
06. Camille Saint-Saens: Le cygne (3:24)
07. Johann Sebastian Bach, Charles Gounod: Ave Maria (5:05)
08. William S. Lloyd Webber: Andante affettuoso (3:20)
09. Johann Strauss, Josef Strauss: Pizzicato Polka (2:18)
10. Tomaso Albinoni, Remo Giazotto: Adagio in G minor (4:57)
11. Traditional, Arr. Percy Grainger: Irish Tune from County Derry ("Danny Boy") (3:44)
12. Aram Khachaturian: Sabre Dance (2:25)
Исполнители:
Julian Lloyd Webber - cello
English Chamber Orchestra
Nicholas Cleobury - conductor

Лог создания рипа

Exact Audio Copy V1.0 beta 3 from 29. August 2011
EAC extraction logfile from 31. March 2012, 18:14
Julian Lloyd Webber / Travels with My Cello - Romantic Pieces
Used drive : ASUS BW-12B1LT Adapter: 2 ID: 0
Read mode : SecureUtilize accurate stream : YesDefeat audio cache : YesMake use of C2 pointers : No
Read offset correction : 6Overread into Lead-In and Lead-Out : NoFill up missing offset samples with silence : YesDelete leading and trailing silent blocks : NoNull samples used in CRC calculations : YesUsed interface : Native Win32 interface for Win NT & 2000Gap handling : Appended to previous track
Used output format : User Defined EncoderSelected bitrate : 1024 kBit/sQuality : HighAdd ID3 tag : NoCommand line compressor : C:\Program Files (x86)\Exact Audio Copy\FLAC\FLAC.EXEAdditional command line options : -8 -V -T "ARTIST=%artist%" -T "TITLE=%title%" -T "ALBUM=%albumtitle%" -T "DATE=%year%" -T "TRACKNUMBER=%tracknr%" -T "GENRE=%genre%" -T "PERFORMER=%albuminterpret%" -T "COMPOSER=%composer%" %haslyrics%--tag-from-file=LYRICS="%lyricsfile%"%haslyrics% -T "ALBUMARTIST=%albumartist%" -T "DISCNUMBER=%cdnumber%" -T "TOTALDISCS=%totalcds%" -T "TOTALTRACKS=%numtracks%" -T "COMMENT=%comment%" %source% -o %dest%
TOC of the extracted CD
Track | Start | Length | Start sector | End sector --------------------------------------------------------- 1 | 0:00.33 | 1:16.70 | 33 | 5802 2 | 1:17.28 | 2:27.70 | 5803 | 16897 3 | 3:45.23 | 3:34.10 | 16898 | 32957 4 | 7:19.33 | 3:37.20 | 32958 | 49252 5 | 10:56.53 | 3:16.57 | 49253 | 64009 6 | 14:13.35 | 3:24.23 | 64010 | 79332 7 | 17:37.58 | 5:04.65 | 79333 | 102197 8 | 22:42.48 | 3:20.22 | 102198 | 117219 9 | 26:02.70 | 2:17.68 | 117220 | 127562 10 | 28:20.63 | 4:57.10 | 127563 | 149847 11 | 33:17.73 | 3:44.05 | 149848 | 166652 12 | 37:02.03 | 2:24.55 | 166653 | 177507
Track 1
Filename F:\EAC\Julian Lloyd Webber\Travels with My Cello - Romantic Pieces\01 Nikolai Rimsky-Korsakov- The Flight of the Bumblebee.wav
Pre-gap length 0:00:02.44
Peak level 52.1 % Extraction speed 3.2 X Track quality 100.0 % Test CRC EB6B1CB5 Copy CRC EB6B1CB5 Accurately ripped (confidence 7) [0B8CCACA] (AR v1) Copy OK
Track 2
Filename F:\EAC\Julian Lloyd Webber\Travels with My Cello - Romantic Pieces\02 Franz Lehár- Vilja-Lied.wav
Pre-gap length 0:00:04.93
Peak level 88.6 % Extraction speed 4.0 X Track quality 100.0 % Test CRC E6E810A6 Copy CRC E6E810A6 Accurately ripped (confidence 7) [FC04E17C] (AR v1) Copy OK
Track 3
Filename F:\EAC\Julian Lloyd Webber\Travels with My Cello - Romantic Pieces\03 Claude Debussy- Golliwogg's Cake-walk.wav
Pre-gap length 0:00:05.17
Peak level 99.9 % Extraction speed 3.8 X Track quality 99.9 % Test CRC 80B9305D Copy CRC 80B9305D Accurately ripped (confidence 7) [A6455B02] (AR v1) Copy OK
Track 4
Filename F:\EAC\Julian Lloyd Webber\Travels with My Cello - Romantic Pieces\04 Robert Shuman- Traumerei.wav
Pre-gap length 0:00:05.46
Peak level 28.1 % Extraction speed 5.1 X Track quality 100.0 % Test CRC 101C652E Copy CRC 101C652E Accurately ripped (confidence 7) [BC308F9D] (AR v1) Copy OK
Track 5
Filename F:\EAC\Julian Lloyd Webber\Travels with My Cello - Romantic Pieces\05 Isaac Albéniz- Puerta de tierra.wav
Pre-gap length 0:00:06.06
Peak level 83.7 % Extraction speed 5.3 X Track quality 100.0 % Test CRC 5C34651A Copy CRC 5C34651A Accurately ripped (confidence 7) [F1C42F3B] (AR v1) Copy OK
Track 6
Filename F:\EAC\Julian Lloyd Webber\Travels with My Cello - Romantic Pieces\06 Camille Saint-Saëns- Le cygne.wav
Pre-gap length 0:00:05.73
Peak level 42.0 % Extraction speed 5.6 X Track quality 100.0 % Test CRC 3A1A7EBD Copy CRC 3A1A7EBD Accurately ripped (confidence 7) [8BDC9F8E] (AR v1) Copy OK
Track 7
Filename F:\EAC\Julian Lloyd Webber\Travels with My Cello - Romantic Pieces\07 Johann Sebastian Bach,Charles Gounod- Ave Maria.wav
Pre-gap length 0:00:07.33
Peak level 46.6 % Extraction speed 6.4 X Track quality 100.0 % Test CRC 17F3F418 Copy CRC 17F3F418 Accurately ripped (confidence 7) [CF10D121] (AR v1) Copy OK
Track 8
Filename F:\EAC\Julian Lloyd Webber\Travels with My Cello - Romantic Pieces\08 William S. Lloyd Webber- Andante affettuoso.wav
Pre-gap length 0:00:04.77
Peak level 71.7 % Extraction speed 6.3 X Track quality 100.0 % Test CRC 02189865 Copy CRC 02189865 Accurately ripped (confidence 7) [CCBAC499] (AR v1) Copy OK
Track 9
Filename F:\EAC\Julian Lloyd Webber\Travels with My Cello - Romantic Pieces\09 Johann Strauss, Jr.,Josef Strauss- Pizzicato-Polka.wav
Pre-gap length 0:00:03.49
Peak level 83.8 % Extraction speed 6.0 X Track quality 100.0 % Test CRC E792F337 Copy CRC E792F337 Accurately ripped (confidence 7) [C04622EF] (AR v1) Copy OK
Track 10
Filename F:\EAC\Julian Lloyd Webber\Travels with My Cello - Romantic Pieces\10 Tomaso Albinoni,Remo Giazotto- Adagio in G Minor.wav
Pre-gap length 0:00:04.73
Peak level 35.8 % Extraction speed 6.0 X Track quality 99.9 % Test CRC 451DE957 Copy CRC 451DE957 Accurately ripped (confidence 7) [9B25E6FD] (AR v1) Copy OK
Track 11
Filename F:\EAC\Julian Lloyd Webber\Travels with My Cello - Romantic Pieces\11 Traditional, Arr. Percy Grainger- Irish Tune from County Derry (''Dann.wav
Pre-gap length 0:00:05.20
Peak level 91.2 % Extraction speed 5.9 X Track quality 99.9 % Test CRC CDBA5AC0 Copy CRC CDBA5AC0 Accurately ripped (confidence 7) [E2233A4C] (AR v1) Copy OK
Track 12
Filename F:\EAC\Julian Lloyd Webber\Travels with My Cello - Romantic Pieces\12 Aram Khachaturian- Sabre Dance.wav
Pre-gap length 0:00:04.93
Peak level 99.5 % Extraction speed 5.1 X Track quality 99.9 % Test CRC 14217B3D Copy CRC 14217B3D Accurately ripped (confidence 7) [3FFC1370] (AR v1) Copy OK
All tracks accurately ripped
No errors occurred
End of status report
==== Log checksum 3BE5751AAFB07739A62215F432425FBED47BBFCA6430D72D6BDA908492AE0FBC ====

Содержание индексной карты (.CUE)

REM GENRE ClassicalREM DATE 1984REM DISCID A8093E0CREM COMMENT "ExactAudioCopy v1.0b3"CATALOG 0028941223128PERFORMER "Julian Lloyd Webber"TITLE "Travels with My Cello"FILE "01 - Rimsky-Korsakov- The Flight of the Bumble-bee.wav" WAVE TRACK 01 AUDIO TITLE "Rimsky-Korsakov: The Flight of the Bumble-bee" PERFORMER "Julian Lloyd Webber" ISRC NLF058400510 PREGAP 00:00:33 INDEX 01 00:00:00 TRACK 02 AUDIO TITLE "Lehar: Vilja-Lied" PERFORMER "Julian Lloyd Webber" ISRC NLF058400470 INDEX 00 01:12:00FILE "02 - Lehar- Vilja-Lied.wav" WAVE INDEX 01 00:00:00 TRACK 03 AUDIO TITLE "Debussy: Golliwogg's Cake-walk" PERFORMER "Julian Lloyd Webber" ISRC NLF058400440 INDEX 00 02:22:57FILE "03 - Debussy- Golliwogg's Cake-walk.wav" WAVE INDEX 01 00:00:00 TRACK 04 AUDIO TITLE "Schumann: Traumerei" PERFORMER "Julian Lloyd Webber" ISRC NLF058400450 INDEX 00 03:28:50FILE "04 - Schumann- Traumerei.wav" WAVE INDEX 01 00:00:00 TRACK 05 AUDIO TITLE "Albeniz: Puerta de tierra" PERFORMER "Julian Lloyd Webber" ISRC NLF058400480 INDEX 00 03:31:15FILE "05 - Albeniz- Puerta de tierra.wav" WAVE INDEX 01 00:00:00 TRACK 06 AUDIO TITLE "Saint-Saens: Le cygne" PERFORMER "Julian Lloyd Webber" ISRC NLF058400430 INDEX 00 03:11:02FILE "06 - Saint-Saens- Le cygne.wav" WAVE INDEX 01 00:00:00 TRACK 07 AUDIO TITLE "J.S. Bach, Gounod: Ave Maria" PERFORMER "Julian Lloyd Webber" ISRC NLF058400490 INDEX 00 03:16:73FILE "07 - J.S. Bach, Gounod- Ave Maria.wav" WAVE INDEX 01 00:00:00 TRACK 08 AUDIO TITLE "W.S.L. Webber: Andante affettuoso" PERFORMER "Julian Lloyd Webber" ISRC NLF058400500 INDEX 00 05:00:07FILE "08 - W.S.L. Webber- Andante affettuoso.wav" WAVE INDEX 01 00:00:00 TRACK 09 AUDIO TITLE "Joh. Strauss, Jos. Strauss: Pizzicato Polka" PERFORMER "Julian Lloyd Webber" ISRC NLF058400460 INDEX 00 03:16:60FILE "09 - Joh. Strauss, Jos. Strauss- Pizzicato Polka.wav" WAVE INDEX 01 00:00:00 TRACK 10 AUDIO TITLE "Albinoni, Giazotto: Adagio in G minor" PERFORMER "Julian Lloyd Webber" ISRC NLF058400520 INDEX 00 02:13:13FILE "10 - Albinoni, Giazotto- Adagio in G minor.wav" WAVE INDEX 01 00:00:00 TRACK 11 AUDIO TITLE "Trad., Arr. Grainger: Irish Tune from County Derry ('Danny Boy')" PERFORMER "Julian Lloyd Webber" ISRC NLF058400530 INDEX 00 04:51:70FILE "11 - Trad., Arr. Grainger- Irish Tune from County Derry ('Danny Boy').wav" WAVE INDEX 01 00:00:00 TRACK 12 AUDIO TITLE "Khachaturian: Sabre Dance" PERFORMER "Julian Lloyd Webber" ISRC NLF058400540 INDEX 00 03:39:10FILE "12 - Khachaturian- Sabre Dance.wav" WAVE INDEX 01 00:00:00

Отчет CUETools

[CUETools log; Date: 08.06.2015 17:35:28; Version: 2.1.5]Pregap length 00:00:33.[CTDB TOCID: GoFUcKH8r0agAegoNI8eri747Cs-] found.Track | CTDB Status 1 | (1/1) Accurately ripped 2 | (1/1) Accurately ripped 3 | (1/1) Accurately ripped 4 | (1/1) Accurately ripped 5 | (1/1) Accurately ripped 6 | (1/1) Accurately ripped 7 | (1/1) Accurately ripped 8 | (1/1) Accurately ripped 9 | (1/1) Accurately ripped 10 | (1/1) Accurately ripped 11 | (1/1) Accurately ripped 12 | (1/1) Accurately ripped[AccurateRip ID: 00109efe-009ff847-a8093e0c] found.Track [ CRC | V2 ] Status 01 [0b8ccaca|23cfc7ea] (07+06/13) Accurately ripped 02 [fc04e17c|31462b55] (07+06/13) Accurately ripped 03 [a6455b02|a5f04bbf] (07+06/13) Accurately ripped 04 [bc308f9d|025c07ec] (07+06/13) Accurately ripped 05 [f1c42f3b|cb7ec10c] (07+06/13) Accurately ripped 06 [8bdc9f8e|8332cee5] (07+06/13) Accurately ripped 07 [cf10d121|e8edbf49] (07+06/13) Accurately ripped 08 [ccbac499|4b83d781] (07+06/13) Accurately ripped 09 [c04622ef|9e89e29d] (07+06/13) Accurately ripped 10 [9b25e6fd|49fc1e7e] (07+06/13) Accurately ripped 11 [e2233a4c|69c9a5dc] (07+06/13) Accurately ripped 12 [3ffc1370|2e1bda52] (07+06/13) Accurately ripped
Track Peak [ CRC32 ] [W/O NULL] [ LOG ] -- 99,9 [C7AC65C1] [7BD03173] 01 52,1 [EB6B1CB5] [AEC1D5F5] CRC32 02 88,6 [E6E810A6] [4071CD9B] CRC32 03 99,9 [80B9305D] [22233291] CRC32 04 28,1 [101C652E] [2ADA4B8A] CRC32 05 83,7 [5C34651A] [C211F7C3] CRC32 06 42,0 [3A1A7EBD] [1F91A512] CRC32 07 46,6 [17F3F418] [0089DFF0] CRC32 08 71,7 [02189865] [1A1CCB55] CRC32 09 83,8 [E792F337] [61465CD8] CRC32 10 35,8 [451DE957] [3EA7662D] CRC32 11 91,1 [CDBA5AC0] [04E41DF0] CRC32 12 99,5 [14217B3D] [EAA86787] CRC32
[teatrix.ru].t9659.torrent 
Торрент: Зарегистрирован [ 2015-10-23 17:11 ] · 4B4BF32ED30B61E73E5FD30FAD15970D15B36835

Скачать .torrent

Скачать

14 KB

Статус: проверено
Скачан: 0 раз
Размер: 160 MB
terms.php



Быстрый ответ

Имя:

      
Для отправки сообщений необходимо включить JavaScript
Показать сообщения:    

Текущее время: 21-Янв 11:37

Часовой пояс: UTC + 3


Вы можете начинать темы
Вы можете отвечать на сообщения
Вы не можете редактировать свои сообщения
Вы не можете удалять свои сообщения
Вы не можете голосовать в опросах
Вы не можете прикреплять файлы к сообщениям
Вы можете скачивать файлы