(Classical, Concerto) Mozart - The Works for Flute (Nicolet, Barwahser, Bennett, Holliger, Baumann, Thuneman, Ellis, Grumiaux Trio, Concertgebouw Orchestra, LSO, ASMIF, David Zinman, Colin Davis, Neville Marriner - 1994, FLAC (image+.cue), lossless


Статистика раздачи [Обновить пиров]
Размер:  695 MB   |    Зарегистрирован:  1 год 1 месяц   |    Скачан:  0 раз

Полного источника не было: Никогда

Личеров:  1  [  0 KB/s  ]   Подробная статистика пиров
 
   
 
 
 

[Цитировать]

Wolfgang Amadeus Mozart - The Works for Flute
Жанр: Classical, Concerto
Страна-производитель диска: Germany
Год издания диска: 1994
Издатель (лейбл): Decca Classics
Номер по каталогу: 442 299-2
Дата записи: 1964-1983
Аудиокодек: FLAC
Тип рипа: image+.cue
Битрейт аудио: lossless
Продолжительность: 79.21 + 78.03
Источник: собственный рип
Наличие сканов в содержимом раздачи: да

CD1:Треклист:

Flute Concerto in G, K. 313
01. I. Allegro maestoso
02. II. Adagio non troppo
03. III. Rondeau. Tempo di menuetto
Flute Concerto in D, K. 314
04. I. Allegro aperto
05. II. Andante ma non troppo
06. III. Allegro
07. Andante in C, K. 315 for flute and orchestra
Concerto in C for Flute and Harp, K. 299
08. I. Allegro
09. II. Andantino
10. III. Rondeau. Allegro
Total 79.21

Лог создания рипа:

Exact Audio Copy V1.0 beta 3 from 29. August 2011
Отчёт EAC об извлечении, выполненном 6. июня 2015, 12:55
W. A. Mozart / The Works for Flute - CD1
Дисковод: Optiarc DVD RW AD-7260S Adapter: 0 ID: 1
Режим чтения : Достоверность
Использование точного потока : Да
Отключение кэша аудио : Да
Использование указателей C2 : Нет
Коррекция смещения при чтении : 48
Способность читать области Lead-in и Lead-out : Нет
Заполнение пропущенных сэмплов тишиной : Да
Удаление блоков с тишиной в начале и конце : Нет
При вычислениях CRC использовались нулевые сэмплы : Да
Интерфейс : Встроенный Win32-интерфейс для Win NT/2000
Выходной формат : Пользовательский кодировщик
Выбранный битрейт : 896 kBit/s
Качество : Высокий
Добавление ID3-тега : Нет
Утилита сжатия : C:\Program Files\FLAC Frontend\tools\flac.exe
Дополнительные параметры : -V -8 -T "Date=%year%" -T "Genre=%genre%" %source%
TOC извлечённого CD
Трек | Старт | Длительность | Начальный сектор | Конечный сектор
---------------------------------------------------------------------
1 | 0:00.33 | 8:45.00 | 33 | 39407
2 | 8:45.33 | 8:43.00 | 39408 | 78632
3 | 17:28.33 | 6:52.00 | 78633 | 109532
4 | 24:20.33 | 7:10.00 | 109533 | 141782
5 | 31:30.33 | 7:19.00 | 141783 | 174707
6 | 38:49.33 | 5:31.00 | 174708 | 199532
7 | 44:20.33 | 6:38.00 | 199533 | 229382
8 | 50:58.33 | 9:37.00 | 229383 | 272657
9 | 60:35.33 | 9:09.00 | 272658 | 313832
10 | 69:44.33 | 9:29.00 | 313833 | 356507
Характеристики диапазона извлечения и сообщения об ошибках
Выбранный диапазон
Имя файла D:\EAC\Мои раздачи\Mozart - The Works for Flute\CD1\W. A. Mozart - The Works for Flute - CD1.wav
Пиковый уровень 92.0 %
Скорость извлечения 4.5 X
Качество диапазона 99.9 %
CRC теста 81FD9266
CRC копии 81FD9266
Копирование... OK
Ошибок не произошло
AccurateRip: сводка
Трек 1 : извлечено точно (доверие 3) [F720BBEC] (AR v2)
Трек 2 : извлечено точно (доверие 3) [07B47AAA] (AR v2)
Трек 3 : извлечено точно (доверие 3) [0856960F] (AR v2)
Трек 4 : извлечено точно (доверие 3) [F3162C45] (AR v2)
Трек 5 : извлечено точно (доверие 3) [6035D410] (AR v2)
Трек 6 : извлечено точно (доверие 3) [D49FEDAE] (AR v2)
Трек 7 : извлечено точно (доверие 3) [125A1DBB] (AR v2)
Трек 8 : извлечено точно (доверие 3) [6D6526AA] (AR v2)
Трек 9 : извлечено точно (доверие 3) [B63B80EE] (AR v2)
Трек 10 : извлечено точно (доверие 3) [9F12D2C4] (AR v2)
Все треки извлечены точно
Конец отчёта
==== Контрольная сумма отчёта E7F0CBFBC322BB3DF226FF502CAC4D0C6BA3F24105F5E53694DE14863E87E8A1 ====

CD2:Треклист:

Flute Quartet in D, K. 285
01. I. Allegro
02. II. Adagio
03. III. Rondeau
Flute Quartet in A, K. 298
04. I. Tema (Andante) con variazioni
05. II. Menuetto
06. III. Rondeau
Flute Quartet in C, K. 285b
07. I. Allegro
08. II. Tema (Andantino) con variazioni
Flute Quartet in G, K. 285a
09. I. Andante
10. II. Tempo di menuetto
Sinfonia concertante in E flat, K. App. 9 (K. 297b)
11. I. Allegro
12. II. Adagio
13. III. Andantino con variazioni
Total 78.03

Лог создания рипа:

Exact Audio Copy V1.0 beta 3 from 29. August 2011
Отчёт EAC об извлечении, выполненном 6. июня 2015, 14:39
W. A. Mozart / Works for Flute - CD2
Дисковод: Optiarc DVD RW AD-7260S Adapter: 0 ID: 1
Режим чтения : Достоверность
Использование точного потока : Да
Отключение кэша аудио : Да
Использование указателей C2 : Нет
Коррекция смещения при чтении : 48
Способность читать области Lead-in и Lead-out : Нет
Заполнение пропущенных сэмплов тишиной : Да
Удаление блоков с тишиной в начале и конце : Нет
При вычислениях CRC использовались нулевые сэмплы : Да
Интерфейс : Встроенный Win32-интерфейс для Win NT/2000
Выходной формат : Пользовательский кодировщик
Выбранный битрейт : 896 kBit/s
Качество : Высокий
Добавление ID3-тега : Нет
Утилита сжатия : C:\Program Files\FLAC Frontend\tools\flac.exe
Дополнительные параметры : -V -8 -T "Date=%year%" -T "Genre=%genre%" %source%
TOC извлечённого CD
Трек | Старт | Длительность | Начальный сектор | Конечный сектор
---------------------------------------------------------------------
1 | 0:00.32 | 6:45.00 | 32 | 30406
2 | 6:45.32 | 2:23.00 | 30407 | 41131
3 | 9:08.32 | 4:19.00 | 41132 | 60556
4 | 13:27.32 | 5:46.00 | 60557 | 86506
5 | 19:13.32 | 2:07.00 | 86507 | 96031
6 | 21:20.32 | 3:04.00 | 96032 | 109831
7 | 24:24.32 | 5:51.00 | 109832 | 136156
8 | 30:15.32 | 9:41.00 | 136157 | 179731
9 | 39:56.32 | 6:11.00 | 179732 | 207556
10 | 46:07.32 | 3:36.00 | 207557 | 223756
11 | 49:43.32 | 9:37.00 | 223757 | 267031
12 | 59:20.32 | 6:29.00 | 267032 | 296206
13 | 65:49.32 | 12:20.00 | 296207 | 351706
Характеристики диапазона извлечения и сообщения об ошибках
Выбранный диапазон
Имя файла D:\EAC\Мои раздачи\Mozart - The Works for Flute\CD2\W. A. Mozart - Works for Flute - CD2.wav
Пиковый уровень 98.8 %
Скорость извлечения 4.6 X
Качество диапазона 100.0 %
CRC теста C29FBD9D
CRC копии C29FBD9D
Копирование... OK
Ошибок не произошло
AccurateRip: сводка
Трек 1 : извлечено точно (доверие 2) [3ED9C234] (AR v2)
Трек 2 : извлечено точно (доверие 2) [A26CA2D1] (AR v2)
Трек 3 : извлечено точно (доверие 2) [F646ECD9] (AR v2)
Трек 4 : извлечено точно (доверие 2) [71CB83AF] (AR v2)
Трек 5 : извлечено точно (доверие 2) [5DCBF460] (AR v2)
Трек 6 : извлечено точно (доверие 2) [EA52FC3E] (AR v2)
Трек 7 : извлечено точно (доверие 2) [53777684] (AR v2)
Трек 8 : извлечено точно (доверие 2) [7221D15E] (AR v2)
Трек 9 : извлечено точно (доверие 2) [379E35CD] (AR v2)
Трек 10 : извлечено точно (доверие 2) [3E81409D] (AR v2)
Трек 11 : извлечено точно (доверие 2) [34017156] (AR v2)
Трек 12 : извлечено точно (доверие 2) [16FCE160] (AR v2)
Трек 13 : извлечено точно (доверие 2) [10D3393F] (AR v2)
Все треки извлечены точно
Конец отчёта
==== Контрольная сумма отчёта 7AB31DA0A02C488F47AB9F7B9597D5851D7DE3F15D10BE28F36CC56B6FAAAB51 ====

Исполнители:

Aurele Nicolet. flute
Royal Concertgebouw Orchestra, David Zinman (K. 313, K. 314, K. 315)
Hubert Barwahser, flute
Osian Ellis, harp
London Symphony Orchestra, Colin Davis (K. 299)
William Bennett, flute
Grumiaux Trio (Quartets)
Aurele Nicolet, flute
Heinz Holliger, oboe
Hermann Baumann, horn
Klaus Thunemann, bassoon
Academy of St. Martin in the Fields, Neville Marriner (K. 297B)
[teatrix.ru].t9660.torrent 
Торрент: Зарегистрирован [ 2015-10-23 17:11 ] · 3F4065533E6D4B7790E0B3AB171036039B49CACF

Скачать .torrent

Скачать

15 KB

Статус: проверено
Скачан: 0 раз
Размер: 695 MB
terms.php



Быстрый ответ

Имя:

      
Для отправки сообщений необходимо включить JavaScript
Показать сообщения:    

Текущее время: 10-Дек 19:36

Часовой пояс: UTC + 3


Вы можете начинать темы
Вы можете отвечать на сообщения
Вы не можете редактировать свои сообщения
Вы не можете удалять свои сообщения
Вы не можете голосовать в опросах
Вы не можете прикреплять файлы к сообщениям
Вы можете скачивать файлы