(Classical, Harp) Xavier de Maistre, L'arte del mondo, Werner Ehrhardt - Notte Veneziana {Vivaldi, Marcello, Alvars, Albinoni, Giazotto, Pescetti, Godefroid} - 2012, FLAC (tracks+.cue), lossless


Статистика раздачи [Обновить пиров]
Размер:  354 MB   |    Зарегистрирован:  1 год 1 месяц   |    Скачан:  0 раз

Полного источника не было: Никогда

Личеров:  1  [  0 KB/s  ]   Подробная статистика пиров
 
   
 
 
 

[Цитировать]

Xavier de Maistre - Notte Veneziana
Жанр: Classical, Harp
Страна-производитель диска: EU
Год издания диска: 2012
Издатель (лейбл): Sony Classical
Номер по каталогу: 88697937732
Аудиокодек: FLAC
Тип рипа: tracks+.cue
Битрейт аудио: lossless
Продолжительность: 1:01:49
Источник (релизер): dtromp (what)
Наличие сканов в содержимом раздачи: да
Треклист:
Antonio Vivaldi (1678-1741)
Concerto in D major RV 93
01. I. Allegro (2:34)
02. II. Largo (2:28)
03. III. Allegro (2:13)
Alessandro Marcello (1684-1750)
Concerto in D minor
04. I. Andante e spiccato (3:13)
05. II. Adagio (3:00)
06. III. Presto (1:56)
Elias Parish Alvars (1808-1849)
07. La Mandoline: Grande Fantaisie Op.84: Introduction - Allegro (6:22)
Antonio Vivaldi
Concerto in G major RV 310
08. I. Allegro (2:16)
09. II. Largo (2:11)
10. III. Allegro (2:08)
Tomaso Albinoni (1671-1751)
Remo Giazotto (1910-1998)

11. Adagio in G minor (5:00)
Giovanni Pescetti (1704-1766)
Sonata in C minor
12. I. Allegro ma non presto (1:50)
13. II. Moderato (3:19)
14. III. Presto (1:16)
Antonio Vivaldi
Concerto in G major RV 299
15. I. Allegro assai (2:16)
16. II. Largo cantabile (1:53)
17. III. Allegro (2:08)
Concerto in F minor RV 297 "L'inverno"
18. I. Allegro non molto (3:26)
19. II. Largo (1:51)
20. III. Allegro (3:06)
Felix Godefroid (1818-1897)
21. Carnaval de Venise Op.184: Maestoso, grazioso e moderato (7:23)
Исполнители:
Xavier de Maistre - harp
L'arte del mondo
Werner Ehrhardt - concertmaster
Recorded at Bayer Kulturhaus, Leverkusen, Germany on April 4-7, 2011.

Лог создания рипа

Exact Audio Copy V1.0 beta 3 from 29. August 2011
EAC extraction logfile from 11. August 2012, 10:57
Xavier de Maistre / Notte Veneziana
Used drive : PLEXTOR DVDR PX-860A Adapter: 0 ID: 0
Read mode : SecureUtilize accurate stream : YesDefeat audio cache : YesMake use of C2 pointers : No
Read offset correction : 96Overread into Lead-In and Lead-Out : NoFill up missing offset samples with silence : YesDelete leading and trailing silent blocks : NoNull samples used in CRC calculations : YesUsed interface : Native Win32 interface for Win NT & 2000Gap handling : Appended to previous track
Used output format : User Defined EncoderSelected bitrate : 1024 kBit/sQuality : HighAdd ID3 tag : NoCommand line compressor : C:\Program Files\Exact Audio Copy\Flac\flac.exeAdditional command line options : -8 -V -T "ARTIST=%artist%" -T "TITLE=%title%" -T "ALBUM=%albumtitle%" -T "DATE=%year%" -T "TRACKNUMBER=%tracknr%" -T "GENRE=%genre%" -T "PERFORMER=%albuminterpret%" -T "COMPOSER=%composer%" %haslyrics%--tag-from-file=LYRICS="%lyricsfile%"%haslyrics% -T "ALBUMARTIST=%albumartist%" -T "DISCNUMBER=%cdnumber%" -T "TOTALDISCS=%totalcds%" -T "TOTALTRACKS=%numtracks%" -T "COMMENT=EAC Secure Mode, Test & Copy, AccurateRip, FLAC -8" %source% -o %dest%
TOC of the extracted CD
Track | Start | Length | Start sector | End sector --------------------------------------------------------- 1 | 0:00.00 | 2:34.36 | 0 | 11585 2 | 2:34.36 | 2:27.43 | 11586 | 22653 3 | 5:02.04 | 2:13.29 | 22654 | 32657 4 | 7:15.33 | 3:13.32 | 32658 | 47164 5 | 10:28.65 | 2:59.48 | 47165 | 60637 6 | 13:28.38 | 1:55.71 | 60638 | 69333 7 | 15:24.34 | 6:22.30 | 69334 | 98013 8 | 21:46.64 | 2:16.04 | 98014 | 108217 9 | 24:02.68 | 2:10.41 | 108218 | 118008 10 | 26:13.34 | 2:07.68 | 118009 | 127601 11 | 28:21.27 | 5:00.16 | 127602 | 150117 12 | 33:21.43 | 1:50.30 | 150118 | 158397 13 | 35:11.73 | 3:19.18 | 158398 | 173340 14 | 38:31.16 | 1:15.55 | 173341 | 179020 15 | 39:46.71 | 2:15.71 | 179021 | 189216 16 | 42:02.67 | 1:52.69 | 189217 | 197685 17 | 43:55.61 | 2:08.18 | 197686 | 207303 18 | 46:04.04 | 3:26.32 | 207304 | 222785 19 | 49:30.36 | 1:51.35 | 222786 | 231145 20 | 51:21.71 | 3:06.06 | 231146 | 245101 21 | 54:28.02 | 7:22.71 | 245102 | 278322
Track 1
Filename I:\DL\Xavier de Maistre - Notte Veneziana (2012) [FLAC]\01 - Concerto in D major RV 93 - I. Allegro.wav
Pre-gap length 0:00:02.00
Peak level 98.7 % Extraction speed 3.9 X Track quality 100.0 % Test CRC 54092FB2 Copy CRC 54092FB2 Track not present in AccurateRip database Copy OK
Track 2
Filename I:\DL\Xavier de Maistre - Notte Veneziana (2012) [FLAC]\02 - II. Largo.wav
Peak level 69.0 % Extraction speed 4.2 X Track quality 100.0 % Test CRC C75588D4 Copy CRC C75588D4 Track not present in AccurateRip database Copy OK
Track 3
Filename I:\DL\Xavier de Maistre - Notte Veneziana (2012) [FLAC]\03 - III. Allegro.wav
Peak level 98.7 % Extraction speed 4.3 X Track quality 100.0 % Test CRC 0752C59F Copy CRC 0752C59F Track not present in AccurateRip database Copy OK
Track 4
Filename I:\DL\Xavier de Maistre - Notte Veneziana (2012) [FLAC]\04 - Concerto in D minor I. Andante e spiccato.wav
Peak level 98.7 % Extraction speed 4.2 X Track quality 99.9 % Test CRC 7A98094A Copy CRC 7A98094A Track not present in AccurateRip database Copy OK
Track 5
Filename I:\DL\Xavier de Maistre - Notte Veneziana (2012) [FLAC]\05 - II. Andante.wav
Peak level 58.6 % Extraction speed 4.4 X Track quality 99.9 % Test CRC E79B98A6 Copy CRC E79B98A6 Track not present in AccurateRip database Copy OK
Track 6
Filename I:\DL\Xavier de Maistre - Notte Veneziana (2012) [FLAC]\06 - III. Presto.wav
Peak level 98.7 % Extraction speed 4.8 X Track quality 100.0 % Test CRC DFA14699 Copy CRC DFA14699 Track not present in AccurateRip database Copy OK
Track 7
Filename I:\DL\Xavier de Maistre - Notte Veneziana (2012) [FLAC]\07 - La Mandoline, Grande Fantaisie op. 84 - Introduction - Allegro.wav
Peak level 98.7 % Extraction speed 6.2 X Track quality 100.0 % Test CRC ADEA8AE0 Copy CRC ADEA8AE0 Track not present in AccurateRip database Copy OK
Track 8
Filename I:\DL\Xavier de Maistre - Notte Veneziana (2012) [FLAC]\08 - Concerto in G major RV 310 - I. Allegro assai.wav
Peak level 98.7 % Extraction speed 5.5 X Track quality 100.0 % Test CRC 41217566 Copy CRC 41217566 Track not present in AccurateRip database Copy OK
Track 9
Filename I:\DL\Xavier de Maistre - Notte Veneziana (2012) [FLAC]\09 - II. Largo.wav
Peak level 98.7 % Extraction speed 5.7 X Track quality 100.0 % Test CRC 170B4AC2 Copy CRC 170B4AC2 Track not present in AccurateRip database Copy OK
Track 10
Filename I:\DL\Xavier de Maistre - Notte Veneziana (2012) [FLAC]\10 - III. Allegro.wav
Peak level 98.7 % Extraction speed 5.7 X Track quality 100.0 % Test CRC 40A6B73D Copy CRC 40A6B73D Track not present in AccurateRip database Copy OK
Track 11
Filename I:\DL\Xavier de Maistre - Notte Veneziana (2012) [FLAC]\11 - Adagio in G minor.wav
Peak level 98.7 % Extraction speed 6.9 X Track quality 100.0 % Test CRC 624E2317 Copy CRC 624E2317 Track not present in AccurateRip database Copy OK
Track 12
Filename I:\DL\Xavier de Maistre - Notte Veneziana (2012) [FLAC]\12 - Sonata in C minor - I. Allegro vigoroso.wav
Peak level 98.7 % Extraction speed 5.9 X Track quality 100.0 % Test CRC 4DD48C84 Copy CRC 4DD48C84 Track not present in AccurateRip database Copy OK
Track 13
Filename I:\DL\Xavier de Maistre - Notte Veneziana (2012) [FLAC]\13 - II. Andante espressivo.wav
Peak level 98.7 % Extraction speed 6.9 X Track quality 100.0 % Test CRC 3EF4052D Copy CRC 3EF4052D Track not present in AccurateRip database Copy OK
Track 14
Filename I:\DL\Xavier de Maistre - Notte Veneziana (2012) [FLAC]\14 - III. Presto.wav
Peak level 98.7 % Extraction speed 5.6 X Track quality 100.0 % Test CRC D67FE0CA Copy CRC D67FE0CA Track not present in AccurateRip database Copy OK
Track 15
Filename I:\DL\Xavier de Maistre - Notte Veneziana (2012) [FLAC]\15 - Concerto in G major RV 299 - I. Allegro.wav
Peak level 98.7 % Extraction speed 6.6 X Track quality 100.0 % Test CRC CACBF577 Copy CRC CACBF577 Track not present in AccurateRip database Copy OK
Track 16
Filename I:\DL\Xavier de Maistre - Notte Veneziana (2012) [FLAC]\16 - II. Largo.wav
Peak level 55.6 % Extraction speed 6.5 X Track quality 100.0 % Test CRC 5DDCB455 Copy CRC 5DDCB455 Track not present in AccurateRip database Copy OK
Track 17
Filename I:\DL\Xavier de Maistre - Notte Veneziana (2012) [FLAC]\17 - III. Allegro.wav
Peak level 98.7 % Extraction speed 6.5 X Track quality 100.0 % Test CRC D335E105 Copy CRC D335E105 Track not present in AccurateRip database Copy OK
Track 18
Filename I:\DL\Xavier de Maistre - Notte Veneziana (2012) [FLAC]\18 - Concerto in F minor RV 297 L'inverno - I. Allegro non molto.wav
Peak level 98.7 % Extraction speed 7.2 X Track quality 100.0 % Test CRC E06B1B16 Copy CRC E06B1B16 Track not present in AccurateRip database Copy OK
Track 19
Filename I:\DL\Xavier de Maistre - Notte Veneziana (2012) [FLAC]\19 - II. Largo.wav
Peak level 62.2 % Extraction speed 6.8 X Track quality 100.0 % Test CRC ACD1CE04 Copy CRC ACD1CE04 Track not present in AccurateRip database Copy OK
Track 20
Filename I:\DL\Xavier de Maistre - Notte Veneziana (2012) [FLAC]\20 - III. Allegro.wav
Peak level 98.7 % Extraction speed 7.7 X Track quality 100.0 % Test CRC C48DCF88 Copy CRC C48DCF88 Track not present in AccurateRip database Copy OK
Track 21
Filename I:\DL\Xavier de Maistre - Notte Veneziana (2012) [FLAC]\21 - Carnaval de Venise - Maestoso, Grazioso e moderato.wav
Peak level 98.7 % Extraction speed 6.9 X Track quality 99.9 % Test CRC 9E06DB73 Copy CRC 9E06DB73 Track not present in AccurateRip database Copy OK
None of the tracks are present in the AccurateRip database
No errors occurred
End of status report
---- CUETools DB Plugin V2.1.3
[CTDB TOCID: oGoZVwr9t5Am_.GOlb7yhl6b04o-] found, Submit result: oGoZVwr9t5Am_.GOlb7yhl6b04o- has been uploaded[9a733d0e] (1/1) Differs in 4 samples @57:15:66You can use CUETools to repair this rip.
==== Log checksum 1676D4029E87EB5738AC2CCB89B797A2558762DCB86F65561A73B6895D64B76E ====

Содержание индексной карты (.CUE)

REM GENRE ClassicalREM DATE 2012REM DISCID 090E7E15REM COMMENT "ExactAudioCopy v1.0b3"CATALOG 0886979377325PERFORMER "Xavier de Maistre"TITLE "Notte Veneziana"FILE "01 - Vivaldi- Concerto in D major RV 93- I. Allegro.wav" WAVE TRACK 01 AUDIO TITLE "Vivaldi: Concerto in D major RV 93: I. Allegro" PERFORMER "Xavier de Maistre" ISRC USBC11100141 INDEX 01 00:00:00FILE "02 - Vivaldi- Concerto in D major RV 93- II. Largo.wav" WAVE TRACK 02 AUDIO TITLE "Vivaldi: Concerto in D major RV 93: II. Largo" PERFORMER "Xavier de Maistre" ISRC USBC11100142 INDEX 01 00:00:00FILE "03 - Vivaldi- Concerto in D major RV 93- III. Allegro.wav" WAVE TRACK 03 AUDIO TITLE "Vivaldi: Concerto in D major RV 93: III. Allegro" PERFORMER "Xavier de Maistre" ISRC USBC11100143 INDEX 01 00:00:00FILE "04 - Marcello- Concerto in D minor- I. Andante e spiccato.wav" WAVE TRACK 04 AUDIO TITLE "Marcello: Concerto in D minor: I. Andante e spiccato" PERFORMER "Xavier de Maistre" ISRC USBC11100128 INDEX 01 00:00:00FILE "05 - Marcello- Concerto in D minor- II. Adagio.wav" WAVE TRACK 05 AUDIO TITLE "Marcello: Concerto in D minor: II. Adagio" PERFORMER "Xavier de Maistre" ISRC USBC11100129 INDEX 01 00:00:00FILE "06 - Marcello- Concerto in D minor- III. Presto.wav" WAVE TRACK 06 AUDIO TITLE "Marcello: Concerto in D minor: III. Presto" PERFORMER "Xavier de Maistre" ISRC USBC11100130 INDEX 01 00:00:00FILE "07 - Alvars- La Mandoline- Grande Fantaisie Op.84- Introduction - Allegro.wav" WAVE TRACK 07 AUDIO TITLE "Alvars: La Mandoline: Grande Fantaisie Op.84: Introduction - Allegro" PERFORMER "Xavier de Maistre" ISRC USBC11100148 INDEX 01 00:00:00FILE "08 - Vivaldi- Concerto in G major RV 310- I. Allegro.wav" WAVE TRACK 08 AUDIO TITLE "Vivaldi: Concerto in G major RV 310: I. Allegro" PERFORMER "Xavier de Maistre" ISRC USBC11100132 INDEX 01 00:00:00FILE "09 - Vivaldi- Concerto in G major RV 310- II. Largo.wav" WAVE TRACK 09 AUDIO TITLE "Vivaldi: Concerto in G major RV 310: II. Largo" PERFORMER "Xavier de Maistre" ISRC USBC11100133 INDEX 01 00:00:00FILE "10 - Vivaldi- Concerto in G major RV 310- III. Allegro.wav" WAVE TRACK 10 AUDIO TITLE "Vivaldi: Concerto in G major RV 310: III. Allegro" PERFORMER "Xavier de Maistre" ISRC USBC11100134 INDEX 01 00:00:00FILE "11 - Albinoni, Giazotto- Adagio in G minor.wav" WAVE TRACK 11 AUDIO TITLE "Albinoni, Giazotto: Adagio in G minor" PERFORMER "Xavier de Maistre" ISRC USBC11100139 INDEX 01 00:00:00FILE "12 - Pescetti- Sonata in C minor- I. Allegro ma non presto.wav" WAVE TRACK 12 AUDIO TITLE "Pescetti: Sonata in C minor: I. Allegro ma non presto" PERFORMER "Xavier de Maistre" ISRC USBC11100145 INDEX 01 00:00:00FILE "13 - Pescetti- Sonata in C minor- II. Moderato.wav" WAVE TRACK 13 AUDIO TITLE "Pescetti: Sonata in C minor: II. Moderato" PERFORMER "Xavier de Maistre" ISRC USBC11100146 INDEX 01 00:00:00FILE "14 - Pescetti- Sonata in C minor- III. Presto.wav" WAVE TRACK 14 AUDIO TITLE "Pescetti: Sonata in C minor: III. Presto" PERFORMER "Xavier de Maistre" ISRC USBC11100147 INDEX 01 00:00:00FILE "15 - Vivaldi- Concerto in G major RV 299- I. Allegro assai.wav" WAVE TRACK 15 AUDIO TITLE "Vivaldi: Concerto in G major RV 299: I. Allegro assai" PERFORMER "Xavier de Maistre" ISRC USBC11100124 INDEX 01 00:00:00FILE "16 - Vivaldi- Concerto in G major RV 299- II. Largo cantabile.wav" WAVE TRACK 16 AUDIO TITLE "Vivaldi: Concerto in G major RV 299: II. Largo cantabile" PERFORMER "Xavier de Maistre" ISRC USBC11100125 INDEX 01 00:00:00FILE "17 - Vivaldi- Concerto in G major RV 299- III. Allegro.wav" WAVE TRACK 17 AUDIO TITLE "Vivaldi: Concerto in G major RV 299: III. Allegro" PERFORMER "Xavier de Maistre" ISRC USBC11100126 INDEX 01 00:00:00FILE "18 - Vivaldi- Concerto in F minor RV 297 'L'inverno'- I. Allegro non molto.wav" WAVE TRACK 18 AUDIO TITLE "Vivaldi: Concerto in F minor RV 297 'L'inverno': I. Allegro non molto" PERFORMER "Xavier de Maistre" ISRC USBC11100136 INDEX 01 00:00:00FILE "19 - Vivaldi- Concerto in F minor RV 297 'L'inverno'- II. Largo.wav" WAVE TRACK 19 AUDIO TITLE "Vivaldi: Concerto in F minor RV 297 'L'inverno': II. Largo" PERFORMER "Xavier de Maistre" ISRC USBC11100137 INDEX 01 00:00:00FILE "20 - Vivaldi- Concerto in F minor RV 297 'L'inverno'- III. Allegro.wav" WAVE TRACK 20 AUDIO TITLE "Vivaldi: Concerto in F minor RV 297 'L'inverno': III. Allegro" PERFORMER "Xavier de Maistre" ISRC USBC11100138 INDEX 01 00:00:00FILE "21 - Godefroid- Carnaval de Venise Op.184- Maestoso, grazioso e moderato.wav" WAVE TRACK 21 AUDIO TITLE "Godefroid: Carnaval de Venise Op.184: Maestoso, grazioso e moderato" PERFORMER "Xavier de Maistre" ISRC USBC11100149 INDEX 01 00:00:00

Отчет CUETools

[CUETools log; Date: 07.06.2015 18:32:16; Version: 2.1.5][CTDB TOCID: oGoZVwr9t5Am_.GOlb7yhl6b04o-] found.Track | CTDB Status 1 | (20/20) Accurately ripped 2 | (20/20) Accurately ripped 3 | (20/20) Accurately ripped 4 | (20/20) Accurately ripped 5 | (20/20) Accurately ripped 6 | (20/20) Accurately ripped 7 | (20/20) Accurately ripped 8 | (20/20) Accurately ripped 9 | (20/20) Accurately ripped 10 | (20/20) Accurately ripped 11 | (20/20) Accurately ripped 12 | (20/20) Accurately ripped 13 | (20/20) Accurately ripped 14 | (20/20) Accurately ripped 15 | (20/20) Accurately ripped 16 | (20/20) Accurately ripped 17 | (20/20) Accurately ripped 18 | (20/20) Accurately ripped 19 | (20/20) Accurately ripped 20 | (20/20) Accurately ripped 21 | ( 1/20) Accurately ripped, or (19/20) differs in 4 samples @02:47:64[AccurateRip ID: 002caec0-02ac9d73-090e7e15] found.Track [ CRC | V2 ] Status 01 [bcc74ff2|7e0e3380] (00+20/24) Accurately ripped 02 [09ecb2b5|937b728d] (00+20/24) Accurately ripped 03 [ceb72672|22abf6a3] (00+20/24) Accurately ripped 04 [b76d4255|31ceafc7] (00+20/24) Accurately ripped 05 [f3258f64|5b8f820c] (00+20/24) Accurately ripped 06 [8e2c8188|5f1471e0] (00+20/24) Accurately ripped 07 [52d3b8c1|c6329ee8] (00+20/24) Accurately ripped 08 [5268f543|26f9e4dd] (00+20/24) Accurately ripped 09 [8e738bae|0096d91b] (00+20/24) Accurately ripped 10 [3602bce9|2085101a] (00+20/24) Accurately ripped 11 [b49282d6|6c512174] (00+20/24) Accurately ripped 12 [6b73675c|f97b6363] (00+20/24) Accurately ripped 13 [63bab9a0|cc4a997f] (00+20/24) Accurately ripped 14 [a17fbd5b|3ee0b929] (00+20/24) Accurately ripped 15 [e092ac53|b29fd837] (00+20/24) Accurately ripped 16 [9757aa97|bbfc806a] (00+20/24) Accurately ripped 17 [7ee4c4be|6a60c026] (00+20/24) Accurately ripped 18 [db4ee16e|25e475ea] (00+20/24) Accurately ripped 19 [925ff762|21ddba78] (00+20/24) Accurately ripped 20 [98705fca|b5ff0751] (00+20/24) Accurately ripped 21 [0c96126d|58377cb0] (00+00/23) No matchOffsetted by -36: 01 [85bfbcda] (00/24) No match (V2 was not tested) 02 [f02b2be4] (00/24) No match (V2 was not tested) 03 [7a2f3ef4] (00/24) No match (V2 was not tested) 04 [b7ddc6ab] (00/24) No match (V2 was not tested) 05 [63219f36] (00/24) No match (V2 was not tested) 06 [7689923e] (00/24) No match (V2 was not tested) 07 [8cb0ce2c] (00/24) No match (V2 was not tested) 08 [8f829aae] (00/24) No match (V2 was not tested) 09 [46cfe44a] (00/24) No match (V2 was not tested) 10 [7fe451e5] (00/24) No match (V2 was not tested) 11 [9da2b515] (00/24) No match (V2 was not tested) 12 [27a8b2db] (00/24) No match (V2 was not tested) 13 [42bbf7ae] (00/24) No match (V2 was not tested) 14 [583fec6e] (00/24) No match (V2 was not tested) 15 [c3615471] (00/24) No match (V2 was not tested) 16 [8257093b] (00/24) No match (V2 was not tested) 17 [d9badd7d] (00/24) No match (V2 was not tested) 18 [196080ec] (00/24) No match (V2 was not tested) 19 [ae411bc0] (00/24) No match (V2 was not tested) 20 [9510cfca] (00/24) No match (V2 was not tested) 21 [06d0e37b] (00/23) No match (V2 was not tested)
Track Peak [ CRC32 ] [W/O NULL] [ LOG ] -- 98,7 [E2B300A0] [4A0F0B5A] 01 98,7 [54092FB2] [4AE3BABC] CRC32 02 69,0 [C75588D4] [C67B1E52] CRC32 03 98,7 [0752C59F] [3691DED7] CRC32 04 98,7 [7A98094A] [60208FE4] CRC32 05 58,6 [E79B98A6] [4AA168C3] CRC32 06 98,7 [DFA14699] [8D6990CD] CRC32 07 98,7 [ADEA8AE0] [8449F117] CRC32 08 98,7 [41217566] [6D48241F] CRC32 09 98,7 [170B4AC2] [E2C46EDE] CRC32 10 98,7 [40A6B73D] [0065CC7A] CRC32 11 98,7 [624E2317] [AAFF0D62] CRC32 12 98,7 [4DD48C84] [424B1EDF] CRC32 13 98,7 [3EF4052D] [9C51C852] CRC32 14 98,7 [D67FE0CA] [9E7961FF] CRC32 15 98,7 [CACBF577] [989F9CDB] CRC32 16 55,6 [5DDCB455] [C251FA57] CRC32 17 98,7 [D335E105] [F0433B3C] CRC32 18 98,7 [E06B1B16] [1F5A1379] CRC32 19 62,2 [ACD1CE04] [F2E0F44A] CRC32 20 98,7 [C48DCF88] [D979F205] CRC32 21 98,7 [9E06DB73] [8742FEFB] CRC32

Review by Ivan March

This is a delightful collection. Xavier de Maistre plays the harp with infinite finesse and much delicacy of colour. He offers four Vivaldi concertos and makes them sound as if they were actually written for the harp, with slow movements particularly enticing.
As he says in his note, ‘the glass-like sounds in Winter from The Four Seasons create an ethereal mood astonishingly reproducing snowflakes and splintering icicles’. The Marcello Concerto, although more robust, is no less winning, especially its gossamer Adagio. The name of Elias Parish Alvars is unfamiliar to me but his grande fantaisie is as captivating on the harp as on the mandolin for which it was written. The Albinoni Adagio is an arrangement of an arrangement but is enhanced by its intimacy. Xavier de Maistre’s own transcription of Giovanni Pescetti’s Sonata also floats by the ear engagingly. To close the programme, Félix Godefroid’s variations on the Carnaval de Venise offer plenty of opportunities for virtuosity but once again the appeal of the performance rests as much on delicate simplicity as extrovert bravura.
Throughout, L’Arte del Mondo, directed by Werner Ehrhardt, provide accompaniments of much finesse and vigour, and the balance (in the Bayer Kulturhaus, Leverkusen) has been expertly managed by the producer, Erich Hofmann. If you enjoy the harp, this CD is very recommendable indeed.
[teatrix.ru].t9661.torrent 
Торрент: Зарегистрирован [ 2015-10-23 17:11 ] · 06E4FB79EB0DF7E88672B942FF9CBC76410C74F4

Скачать .torrent

Скачать

17 KB

Статус: проверено
Скачан: 0 раз
Размер: 354 MB
terms.php



Быстрый ответ

Имя:

      
Для отправки сообщений необходимо включить JavaScript
Показать сообщения:    

Текущее время: 10-Дек 00:22

Часовой пояс: UTC + 3


Вы можете начинать темы
Вы можете отвечать на сообщения
Вы не можете редактировать свои сообщения
Вы не можете удалять свои сообщения
Вы не можете голосовать в опросах
Вы не можете прикреплять файлы к сообщениям
Вы можете скачивать файлы