(Classical) Xavier de Maistre, Vienna Radio Symphony Orchestra, Bertrand de Billy - Aranjuez: Concertos and Dances for Harp {De Falla, Rodrigo, Tarrega, Granados, Ginastera} - 2010, FLAC (tracks+.cue), lossless


Статистика раздачи [Обновить пиров]
Размер:  241 MB   |    Зарегистрирован:  1 год 1 месяц   |    Скачан:  1 раз

Полного источника не было: 8 дней

Личеров:  1  [  0 KB/s  ]   Подробная статистика пиров
 
   
 
 
 

[Цитировать]

Xavier de Maistre - Aranjuez: Concertos and Dances for Harp
Жанр: Classical
Страна-производитель диска: EU
Год издания диска: 2010
Издатель (лейбл): RCA Red Seal/Sony Music Entertainment
Номер по каталогу: 88697644362
Аудиокодек: FLAC
Тип рипа: tracks+.cue
Битрейт аудио: lossless
Продолжительность: 1:08:22
Источник (релизер): sunetti (what)
Наличие сканов в содержимом раздачи: нет
Треклист:
Manuel de Falla (1876-1946)
01. Spanish Dance No.1 from "La vida breve" (3:42)
Joaquin Rodrigo (1901-1999)
Concierto de Aranjuez
02. I. Allegro con spirito (6:05)
03. II. Adagio (11:33)
04. III. Allegro gentile (5:02)
Francisco Tarrega (1852-1909)
05. Recuerdos de la Alhambra (4:07)
Enrique Granados (1867-1916)
Valses poeticos H.147, Dlr 7:8
06. Preludio: Vivace (1:22)
07. No.1: Melodico (1:37)
08. No.2: Tiempo de Vals noble: Poco piu moderato (1:21)
09. No.3: Tiempo de Vals lento (1:45)
10. No.4: Allegro humoristico (0:39)
11. No.5: Allegretto (Elegante) (1:25)
12. No.6: Quasi ad libitum (Sentimental) (1:24)
13. No.7: Vivo (1:00)
14. No.8: Presto - Andante - Tiempo de Vals (2:17)
Alberto Ginastera (1916-1983)
Harp Concerto, Op.25
15. I. Allegro giusto (8:34)
16. II. Molto moderato (5:54)
17. III. Kadenz - Liberamente capriccioso (3:47)
18. III. Vivace (4:30)
19. Milonga (2:18)
Исполнители:
Xavier de Maistre - harp
Vienna Radio Symphony Orchestra
Bertrand de Billy - conductor
Recorded at Grosser Sendesaal, ORF RadioKulturhaus, Vienna on September 21 - December 22, 2009.

Лог создания рипа

Exact Audio Copy V1.0 beta 1 from 15. November 2010
EAC extraction logfile from 28. May 2011, 14:22
Xavier de Maistre / Aranjuez
Used drive : TSSTcorpDVD+-RW TS-H653G Adapter: 2 ID: 0
Read mode : SecureUtilize accurate stream : YesDefeat audio cache : YesMake use of C2 pointers : No
Read offset correction : 6Overread into Lead-In and Lead-Out : NoFill up missing offset samples with silence : YesDelete leading and trailing silent blocks : NoNull samples used in CRC calculations : YesUsed interface : Native Win32 interface for Win NT & 2000Gap handling : Appended to previous track
Used output format : User Defined EncoderSelected bitrate : 128 kBit/sQuality : HighAdd ID3 tag : NoCommand line compressor : D:\Program Files (x86)\Exact Audio Copy\Flac\flac.exeAdditional command line options : -V -8 -T "artist=%a" -T "title=%t" -T "album=%g" -T "date=%y" -T "tracknumber=%n" -T "genre=%m" %s
TOC of the extracted CD
Track | Start | Length | Start sector | End sector --------------------------------------------------------- 1 | 0:00.00 | 3:41.46 | 0 | 16620 2 | 3:41.46 | 6:05.07 | 16621 | 44002 3 | 9:46.53 | 11:33.31 | 44003 | 96008 4 | 21:20.09 | 5:02.01 | 96009 | 118659 5 | 26:22.10 | 4:06.47 | 118660 | 137156 6 | 30:28.57 | 1:22.17 | 137157 | 143323 7 | 31:50.74 | 1:36.39 | 143324 | 150562 8 | 33:27.38 | 1:21.20 | 150563 | 156657 9 | 34:48.58 | 1:44.65 | 156658 | 164522 10 | 36:33.48 | 0:39.12 | 164523 | 167459 11 | 37:12.60 | 1:25.01 | 167460 | 173835 12 | 38:37.61 | 1:24.19 | 173836 | 180154 13 | 40:02.05 | 1:00.36 | 180155 | 184690 14 | 41:02.41 | 2:16.65 | 184691 | 194955 15 | 43:19.31 | 8:34.26 | 194956 | 233531 16 | 51:53.57 | 5:53.54 | 233532 | 260060 17 | 57:47.36 | 3:46.64 | 260061 | 277074 18 | 61:34.25 | 4:29.48 | 277075 | 297297 19 | 66:03.73 | 2:17.59 | 297298 | 307631
Track 1
Filename G:\Xavier de Maistre - Aranjuez -\01 - , Spanish Dance No. 1.wav
Pre-gap length 0:00:02.00
Peak level 49.9 % Extraction speed 4.8 X Track quality 100.0 % Test CRC 9D633714 Copy CRC 9D633714 Accurately ripped (confidence 5) [8EAF6235] Copy OK
Track 2
Filename G:\Xavier de Maistre - Aranjuez -\02 - , Rodrigo-1 Allegro con spirito.wav
Pre-gap length 0:00:04.00
Peak level 96.8 % Extraction speed 5.7 X Track quality 100.0 % Test CRC 7CA3673D Copy CRC 7CA3673D Accurately ripped (confidence 5) [4FF43723] Copy OK
Track 3
Filename G:\Xavier de Maistre - Aranjuez -\03 - , Rodrigo-2 Adagio.wav
Peak level 65.9 % Extraction speed 6.9 X Track quality 100.0 % Test CRC A02412F0 Copy CRC A02412F0 Accurately ripped (confidence 5) [F050ECCE] Copy OK
Track 4
Filename G:\Xavier de Maistre - Aranjuez -\04 - , Rodrigo-3 Allegro gentile.wav
Peak level 65.3 % Extraction speed 7.2 X Track quality 100.0 % Test CRC D60A5D63 Copy CRC D60A5D63 Accurately ripped (confidence 5) [D938FDA2] Copy OK
Track 5
Filename G:\Xavier de Maistre - Aranjuez -\05 - , Recuerdos de la Alhambra.wav
Pre-gap length 0:00:04.00
Peak level 22.5 % Extraction speed 7.4 X Track quality 100.0 % Test CRC EC3AD0ED Copy CRC EC3AD0ED Accurately ripped (confidence 5) [610932FA] Copy OK
Track 6
Filename G:\Xavier de Maistre - Aranjuez -\06 - , Preludio_ Vivace.wav
Pre-gap length 0:00:04.00
Peak level 33.2 % Extraction speed 5.9 X Track quality 100.0 % Test CRC 957A1309 Copy CRC 957A1309 Accurately ripped (confidence 5) [63977A0C] Copy OK
Track 7
Filename G:\Xavier de Maistre - Aranjuez -\07 - , Melódico.wav
Peak level 31.2 % Extraction speed 6.2 X Track quality 100.0 % Test CRC C1E0406B Copy CRC C1E0406B Accurately ripped (confidence 5) [7780CC2D] Copy OK
Track 8
Filename G:\Xavier de Maistre - Aranjuez -\08 - , Tiempo de Vals noble.wav
Peak level 24.6 % Extraction speed 6.0 X Track quality 100.0 % Test CRC 34575B09 Copy CRC 34575B09 Accurately ripped (confidence 5) [55640806] Copy OK
Track 9
Filename G:\Xavier de Maistre - Aranjuez -\09 - , Tiempo de Vals lento.wav
Peak level 29.2 % Extraction speed 6.6 X Track quality 100.0 % Test CRC AEBE6C41 Copy CRC AEBE6C41 Accurately ripped (confidence 5) [61584295] Copy OK
Track 10
Filename G:\Xavier de Maistre - Aranjuez -\10 - , Allegro humóristico.wav
Peak level 39.1 % Extraction speed 2.2 X Track quality 99.7 % Test CRC 18FD82D4 Copy CRC 18FD82D4 Accurately ripped (confidence 5) [0BC18BD0] Copy OK
Track 11
Filename G:\Xavier de Maistre - Aranjuez -\11 - , Allegretto (Elegante).wav
Peak level 21.1 % Extraction speed 3.8 X Track quality 99.8 % Test CRC 94755107 Copy CRC 94755107 Accurately ripped (confidence 5) [9406E524] Copy OK
Track 12
Filename G:\Xavier de Maistre - Aranjuez -\12 - , Quasi ad libitum (Sentimental).wav
Peak level 26.1 % Extraction speed 6.2 X Track quality 100.0 % Test CRC 6D67C379 Copy CRC 6D67C379 Accurately ripped (confidence 5) [44912FF4] Copy OK
Track 13
Filename G:\Xavier de Maistre - Aranjuez -\13 - , Vivo.wav
Peak level 28.5 % Extraction speed 5.8 X Track quality 100.0 % Test CRC 728237F5 Copy CRC 728237F5 Accurately ripped (confidence 5) [9D00D992] Copy OK
Track 14
Filename G:\Xavier de Maistre - Aranjuez -\14 - , Presto - Andante - Tiempo de Vals.wav
Peak level 35.1 % Extraction speed 7.5 X Track quality 100.0 % Test CRC 3837F5EB Copy CRC 3837F5EB Accurately ripped (confidence 5) [7C9E1C2A] Copy OK
Track 15
Filename G:\Xavier de Maistre - Aranjuez -\15 - , Ginastera 1 Allegro giusto.wav
Pre-gap length 0:00:04.00
Peak level 86.4 % Extraction speed 8.1 X Track quality 99.9 % Test CRC 29310C39 Copy CRC 29310C39 Accurately ripped (confidence 5) [D9CB8989] Copy OK
Track 16
Filename G:\Xavier de Maistre - Aranjuez -\16 - , Ginastera 2 Molto moderato.wav
Peak level 16.9 % Extraction speed 9.4 X Track quality 100.0 % Test CRC D5DEC020 Copy CRC D5DEC020 Accurately ripped (confidence 5) [0FD27F48] Copy OK
Track 17
Filename G:\Xavier de Maistre - Aranjuez -\17 - , Ginastera 3 Kadenz.wav
Peak level 50.3 % Extraction speed 9.2 X Track quality 100.0 % Test CRC E414B5F9 Copy CRC E414B5F9 Accurately ripped (confidence 5) [2896D0F3] Copy OK
Track 18
Filename G:\Xavier de Maistre - Aranjuez -\18 - , Ginastera 3 Vivace.wav
Peak level 96.8 % Extraction speed 7.6 X Track quality 99.9 % Test CRC 76AD9605 Copy CRC 76AD9605 Accurately ripped (confidence 5) [B45EF05F] Copy OK
Track 19
Filename G:\Xavier de Maistre - Aranjuez -\19 - , Milonga.wav
Pre-gap length 0:00:04.00
Peak level 28.0 % Extraction speed 8.7 X Track quality 100.0 % Test CRC 80F9FDF4 Copy CRC 80F9FDF4 Accurately ripped (confidence 5) [1E1ED0BB] Copy OK
All tracks accurately ripped
No errors occurred
End of status report

Содержание индексной карты (.CUE)

REM GENRE ClassicalREM DATE 2010REM DISCID 0A100513REM COMMENT "ExactAudioCopy v1.0b1"PERFORMER "Xavier de Maistre"TITLE "Aranjuez: Concertos and Dances for Harp"FILE "01 - De Falla- Spanish Dance No.1 from 'La vida breve'.wav" WAVE TRACK 01 AUDIO TITLE "De Falla: Spanish Dance No.1 from 'La vida breve'" PERFORMER "Xavier de Maistre" INDEX 01 00:00:00 TRACK 02 AUDIO TITLE "Rodrigo: Concierto de Aranjuez: I. Allegro con spirito" PERFORMER "Xavier de Maistre" INDEX 00 03:37:46FILE "02 - Rodrigo- Concierto de Aranjuez- I. Allegro con spirito.wav" WAVE INDEX 01 00:00:00FILE "03 - Rodrigo- Concierto de Aranjuez- II. Adagio.wav" WAVE TRACK 03 AUDIO TITLE "Rodrigo: Concierto de Aranjuez: II. Adagio" PERFORMER "Xavier de Maistre" INDEX 01 00:00:00FILE "04 - Rodrigo- Concierto de Aranjuez- III. Allegro gentile.wav" WAVE TRACK 04 AUDIO TITLE "Rodrigo: Concierto de Aranjuez: III. Allegro gentile" PERFORMER "Xavier de Maistre" INDEX 01 00:00:00 TRACK 05 AUDIO TITLE "Tarrega: Recuerdos de la Alhambra" PERFORMER "Xavier de Maistre" INDEX 00 04:58:01FILE "05 - Tarrega- Recuerdos de la Alhambra.wav" WAVE INDEX 01 00:00:00 TRACK 06 AUDIO TITLE "Granados: Valses poeticos H.147, Dlr 7:8: Preludio: Vivace" PERFORMER "Xavier de Maistre" INDEX 00 04:02:47FILE "06 - Granados- Valses poeticos H.147, Dlr 7-8- Preludio- Vivace.wav" WAVE INDEX 01 00:00:00FILE "07 - Granados- Valses poeticos H.147, Dlr 7-8- No.1- Melodico.wav" WAVE TRACK 07 AUDIO TITLE "Granados: Valses poeticos H.147, Dlr 7:8: No.1: Melodico" PERFORMER "Xavier de Maistre" INDEX 01 00:00:00FILE "08 - Granados- Valses poeticos H.147, Dlr 7-8- No.2- Tiempo de Vals noble- Poco piu moderato.wav" WAVE TRACK 08 AUDIO TITLE "Granados: Valses poeticos H.147, Dlr 7:8: No.2: Tiempo de Vals noble: Poco piu moderato" PERFORMER "Xavier de Maistre" INDEX 01 00:00:00FILE "09 - Granados- Valses poeticos H.147, Dlr 7-8- No.3- Tiempo de Vals lento.wav" WAVE TRACK 09 AUDIO TITLE "Granados: Valses poeticos H.147, Dlr 7:8: No.3: Tiempo de Vals lento" PERFORMER "Xavier de Maistre" INDEX 01 00:00:00FILE "10 - Granados- Valses poeticos H.147, Dlr 7-8- No.4- Allegro humoristico.wav" WAVE TRACK 10 AUDIO TITLE "Granados: Valses poeticos H.147, Dlr 7:8: No.4: Allegro humoristico" PERFORMER "Xavier de Maistre" INDEX 01 00:00:00FILE "11 - Granados- Valses poeticos H.147, Dlr 7-8- No.5- Allegretto (Elegante).wav" WAVE TRACK 11 AUDIO TITLE "Granados: Valses poeticos H.147, Dlr 7:8: No.5: Allegretto (Elegante)" PERFORMER "Xavier de Maistre" INDEX 01 00:00:00FILE "12 - Granados- Valses poeticos H.147, Dlr 7-8- No.6- Quasi ad libitum (Sentimental).wav" WAVE TRACK 12 AUDIO TITLE "Granados: Valses poeticos H.147, Dlr 7:8: No.6: Quasi ad libitum (Sentimental)" PERFORMER "Xavier de Maistre" INDEX 01 00:00:00FILE "13 - Granados- Valses poeticos H.147, Dlr 7-8- No.7- Vivo.wav" WAVE TRACK 13 AUDIO TITLE "Granados: Valses poeticos H.147, Dlr 7:8: No.7: Vivo" PERFORMER "Xavier de Maistre" INDEX 01 00:00:00FILE "14 - Granados- Valses poeticos H.147, Dlr 7-8- No.8- Presto - Andante - Tiempo de Vals.wav" WAVE TRACK 14 AUDIO TITLE "Granados: Valses poeticos H.147, Dlr 7:8: No.8: Presto - Andante - Tiempo de Vals" PERFORMER "Xavier de Maistre" INDEX 01 00:00:00 TRACK 15 AUDIO TITLE "Ginastera: Harp Concerto, Op.25: I. Allegro giusto" PERFORMER "Xavier de Maistre" INDEX 00 02:12:65FILE "15 - Ginastera- Harp Concerto, Op.25- I. Allegro giusto.wav" WAVE INDEX 01 00:00:00FILE "16 - Ginastera- Harp Concerto, Op.25- II. Molto moderato.wav" WAVE TRACK 16 AUDIO TITLE "Ginastera: Harp Concerto, Op.25: II. Molto moderato" PERFORMER "Xavier de Maistre" INDEX 01 00:00:00FILE "17 - Ginastera- Harp Concerto, Op.25- III. Kadenz - Liberamente capriccioso.wav" WAVE TRACK 17 AUDIO TITLE "Ginastera: Harp Concerto, Op.25: III. Kadenz - Liberamente capriccioso" PERFORMER "Xavier de Maistre" INDEX 01 00:00:00FILE "18 - Ginastera- Harp Concerto, Op.25- III. Vivace.wav" WAVE TRACK 18 AUDIO TITLE "Ginastera: Harp Concerto, Op.25: III. Vivace" PERFORMER "Xavier de Maistre" INDEX 01 00:00:00 TRACK 19 AUDIO TITLE "Ginastera: Milonga" PERFORMER "Xavier de Maistre" INDEX 00 04:25:48FILE "19 - Ginastera- Milonga.wav" WAVE INDEX 01 00:00:00

Отчет CUETools

[CUETools log; Date: 07.06.2015 16:43:39; Version: 2.1.5][CTDB TOCID: Yayoei6nhWi7JPRiv2fzvDdSvrg-] found.Track | CTDB Status 1 | (18/18) Accurately ripped 2 | (18/18) Accurately ripped 3 | (18/18) Accurately ripped 4 | (18/18) Accurately ripped 5 | (17/18) Accurately ripped 6 | (18/18) Accurately ripped 7 | (18/18) Accurately ripped 8 | (18/18) Accurately ripped 9 | (18/18) Accurately ripped 10 | (18/18) Accurately ripped 11 | (18/18) Accurately ripped 12 | (18/18) Accurately ripped 13 | (18/18) Accurately ripped 14 | (17/18) Accurately ripped 15 | (18/18) Accurately ripped 16 | (18/18) Accurately ripped 17 | (18/18) Accurately ripped 18 | (18/18) Accurately ripped 19 | (17/18) Accurately ripped[AccurateRip ID: 00326b16-029eb258-0a100513] found.Track [ CRC | V2 ] Status 01 [8eaf6235|2a62d715] (09+15/29) Accurately ripped 02 [4ff43723|325073a3] (09+15/29) Accurately ripped 03 [f050ecce|99bbdb82] (09+15/29) Accurately ripped 04 [d938fda2|2d1a4974] (09+15/29) Accurately ripped 05 [610932fa|2e9fe0ed] (09+15/29) Accurately ripped 06 [63977a0c|18292882] (09+15/29) Accurately ripped 07 [7780cc2d|33dd8338] (09+15/29) Accurately ripped 08 [55640806|30960c2d] (09+15/29) Accurately ripped 09 [61584295|8aa8a41f] (09+15/29) Accurately ripped 10 [0bc18bd0|03e10dd4] (09+15/29) Accurately ripped 11 [9406e524|af4fa078] (09+15/29) Accurately ripped 12 [44912ff4|5233c1e1] (09+15/29) Accurately ripped 13 [9d00d992|62c4b3ec] (09+15/29) Accurately ripped 14 [7c9e1c2a|1d1fe5e5] (09+14/28) Accurately ripped 15 [d9cb8989|fe627782] (09+15/29) Accurately ripped 16 [0fd27f48|43adc2a7] (09+15/29) Accurately ripped 17 [2896d0f3|773f6a58] (09+15/29) Accurately ripped 18 [b45ef05f|3898f298] (09+15/29) Accurately ripped 19 [1e1ed0bb|0290fe3c] (09+15/29) Accurately rippedOffsetted by -36: 01 [70b94212] (00/29) No match (V2 was not tested) 02 [bce5fb96] (00/29) No match (V2 was not tested) 03 [a97bf4d2] (00/29) No match (V2 was not tested) 04 [ebe42827] (00/29) No match (V2 was not tested) 05 [26f3375e] (00/29) No match (V2 was not tested) 06 [5bff265a] (00/29) No match (V2 was not tested) 07 [ce8e6da1] (00/29) No match (V2 was not tested) 08 [ff5a4378] (00/29) No match (V2 was not tested) 09 [fc662ea4] (00/29) No match (V2 was not tested) 10 [955fe2d6] (00/29) No match (V2 was not tested) 11 [30b19414] (00/29) No match (V2 was not tested) 12 [bfa6a7d9] (00/29) No match (V2 was not tested) 13 [8c49dd9e] (00/29) No match (V2 was not tested) 14 [a190037c] (00/28) No match (V2 was not tested) 15 [0a78d60a] (00/29) No match (V2 was not tested) 16 [55fcba45] (00/29) No match (V2 was not tested) 17 [5a3bdace] (00/29) No match (V2 was not tested) 18 [99a5d0ca] (00/29) No match (V2 was not tested) 19 [8a1eed80] (00/29) No match (V2 was not tested)
Track Peak [ CRC32 ] [W/O NULL] [ LOG ] -- 96,8 [83B4AD84] [D280336E] 01 49,9 [9D633714] [80AB8695] CRC32 02 96,8 [7CA3673D] [ECD7ECAD] CRC32 03 65,9 [A02412F0] [7D17D986] CRC32 04 65,3 [D60A5D63] [E18E4215] CRC32 05 22,5 [EC3AD0ED] [E3F73820] CRC32 06 33,2 [957A1309] [17F48535] CRC32 07 31,2 [C1E0406B] [B1F2B543] CRC32 08 24,6 [34575B09] [EDF9FC0B] CRC32 09 29,2 [AEBE6C41] [A4A737CB] CRC32 10 39,1 [18FD82D4] [84F80A2B] CRC32 11 21,1 [94755107] [0F610C4A] CRC32 12 26,1 [6D67C379] [02D6CE51] CRC32 13 28,5 [728237F5] [C9ED91EE] CRC32 14 35,1 [3837F5EB] [50E20682] CRC32 15 86,4 [29310C39] [063952C2] CRC32 16 16,9 [D5DEC020] [3D3A0EC6] CRC32 17 50,3 [E414B5F9] [0E03FA00] CRC32 18 96,8 [76AD9605] [600B1C5A] CRC32 19 27,9 [80F9FDF4] [6BCA01D2] CRC32

Об альбоме (сборнике)

If Spanish and Latin American music is not only associated with the guitar - but also with the harp, this is due above all to the internationally acclaimed Basque harpist Nicanor Zabaleta (1907-1993). Aranjuez is Xavier de Maistre's homage to his great colleague, whom he was privileged to hear perform and to whom he owes the decisive impulse to embrace a career in music. Here the brilliant young harpist plays leading works by Spanish and Latin American composers that Zabaleta helped to promote in the form of harp transcriptions.
[teatrix.ru].t9662.torrent 
Торрент: Зарегистрирован [ 2015-10-23 17:11 ] · A24DC03B9998E2B77314C53998E92764A8AB3636

Скачать .torrent

Скачать

22 KB

Статус: проверено
Скачан: 1 раз
Размер: 241 MB
terms.php



Быстрый ответ

Имя:

      
Для отправки сообщений необходимо включить JavaScript
Показать сообщения:    

Текущее время: 09-Дек 12:38

Часовой пояс: UTC + 3


Вы можете начинать темы
Вы можете отвечать на сообщения
Вы не можете редактировать свои сообщения
Вы не можете удалять свои сообщения
Вы не можете голосовать в опросах
Вы не можете прикреплять файлы к сообщениям
Вы можете скачивать файлы