(Classical, Concerto) Wieniawski - Violin Concertos Nos. 1 & 2 (Vadim Brodski, violin, The National Polish Radio Symphony Orchestra in Katowice, Antoni Wit, Tomasz Michalak) - 2003, FLAC (image+.cue), lossless


Статистика раздачи [Обновить пиров]
Размер:  324 MB   |    Зарегистрирован:  1 год 1 месяц   |    Скачан:  0 раз

Полного источника не было: Никогда

Личеров:  1  [  0 KB/s  ]   Подробная статистика пиров
 
   
 
 
 

[Цитировать]

Wieniawski - Violin Concertos Nos. 1 & 2 - Brodski
Жанр: Classical, Concerto
Страна-производитель диска: Poland
Год издания диска: 2003
Издатель (лейбл): Dux Recording
Номер по каталогу: DUX 0410
Дата записи: ?
Аудиокодек: FLAC
Тип рипа: image+.cue
Битрейт аудио: lossless
Продолжительность: 73.30
Источник: собственный рип
Наличие сканов в содержимом раздачи: да
Исполнители: Vadim Brodski, violin
The National Polish Radio Symphony Orchestra in Katowice
Antoni Wit, Tomasz Michalak

Треклист:

Koncert skrzypcowy fis-moll op. 14
01. I. Allegro moderato
02. II. Preghiera. Larghetto
03. III. Rondo. Allegro giocoso
04. Fantazja na motywach z opery 'Faust' Charlesa Gounoda op. 20
Koncert skrzypcowy d-moll op. 22
05. I. Allegro moderato
06. II. Romans. Andante ma non troppo
07. III. Finale Allegro moderato (a la zingara)
08. Kujawiak a-moll
09. Obertas nr. 1 op. 19
Total 73.30

Лог создания рипа:

Exact Audio Copy V1.0 beta 3 from 29. August 2011
Отчёт EAC об извлечении, выполненном 29. мая 2015, 14:19
Vadim Brodski / Wieniawski - Violin Concertos Nos. 1 & 2
Дисковод: Optiarc DVD RW AD-7260S Adapter: 0 ID: 1
Режим чтения : ДостоверностьИспользование точного потока : ДаОтключение кэша аудио : ДаИспользование указателей C2 : Нет
Коррекция смещения при чтении : 48Способность читать области Lead-in и Lead-out : НетЗаполнение пропущенных сэмплов тишиной : ДаУдаление блоков с тишиной в начале и конце : НетПри вычислениях CRC использовались нулевые сэмплы : ДаИнтерфейс : Встроенный Win32-интерфейс для Win NT/2000
Выходной формат : Пользовательский кодировщикВыбранный битрейт : 896 kBit/sКачество : ВысокийДобавление ID3-тега : НетУтилита сжатия : C:\Program Files\FLAC Frontend\tools\flac.exeДополнительные параметры : -V -8 -T "Date=%year%" -T "Genre=%genre%" %source%
TOC извлечённого CD
Трек | Старт | Длительность | Начальный сектор | Конечный сектор --------------------------------------------------------------------- 1 | 0:00.00 | 14:26.65 | 0 | 65014 2 | 14:26.65 | 4:43.70 | 65015 | 86309 3 | 19:10.60 | 6:53.66 | 86310 | 117350 4 | 26:04.51 | 18:42.16 | 117351 | 201516 5 | 44:46.67 | 11:41.31 | 201517 | 254122 6 | 56:28.23 | 4:50.72 | 254123 | 275944 7 | 61:19.20 | 6:35.18 | 275945 | 305587 8 | 67:54.38 | 3:10.00 | 305588 | 319837 9 | 71:04.38 | 2:23.20 | 319838 | 330582
Характеристики диапазона извлечения и сообщения об ошибках
Выбранный диапазон
Имя файла D:\EAC\Мои раздачи\Wieniawski - Violin Concertos Nos. 1 & 2 ect. - Brodski\Vadim Brodski - Wieniawski - Violin Concertos Nos. 1 & 2.wav
Пиковый уровень 92.9 % Скорость извлечения 4.5 X Качество диапазона 100.0 % CRC теста 1A7DBEFB CRC копии 1A7DBEFB Копирование... OK
Ошибок не произошло
AccurateRip: сводка
Трек 1 : извлечено точно (доверие 1) [C7AA051E] (AR v2)Трек 2 : извлечено точно (доверие 1) [5FF8D1F6] (AR v2)Трек 3 : извлечено точно (доверие 1) [6F4EAEB2] (AR v2)Трек 4 : извлечено точно (доверие 1) [E66A52E4] (AR v2)Трек 5 : извлечено точно (доверие 1) [714BF66A] (AR v2)Трек 6 : извлечено точно (доверие 1) [F65CCE55] (AR v2)Трек 7 : извлечено точно (доверие 1) [F0B2821B] (AR v2)Трек 8 : извлечено точно (доверие 1) [91EE2A93] (AR v2)Трек 9 : извлечено точно (доверие 1) [31587F6E] (AR v2)
Все треки извлечены точно
Конец отчёта
==== Контрольная сумма отчёта 415810EB581BC72A005990D3187446CDDC7CDB33A3241C995FD29B1C80C2EFA3 ====
[teatrix.ru].t9663.torrent 
Торрент: Зарегистрирован [ 2015-10-23 17:11 ] · 623D138507FB04C998B988D52CC96DABCE9149AA

Скачать .torrent

Скачать

14 KB

Статус: проверено
Скачан: 0 раз
Размер: 324 MB
terms.php



Быстрый ответ

Имя:

      
Для отправки сообщений необходимо включить JavaScript
Показать сообщения:    

Текущее время: 03-Дек 09:40

Часовой пояс: UTC + 3


Вы можете начинать темы
Вы можете отвечать на сообщения
Вы не можете редактировать свои сообщения
Вы не можете удалять свои сообщения
Вы не можете голосовать в опросах
Вы не можете прикреплять файлы к сообщениям
Вы можете скачивать файлы