(Classical, guitar) Никита Кошкин - Концерт «Мегарон»; Гитарный квинтет; L’istesso tempo - Elena Papandreou, Singapore Symphony Orchestra, Lan Shui, New Hellenic Quartet - 2012, FLAC (image+.cue) lossless


Статистика раздачи [Обновить пиров]
Размер:  329 MB   |    Зарегистрирован:  1 год 1 месяц   |    Скачан:  0 раз

Полного источника не было: Никогда

Личеров:  1  [  0 KB/s  ]   Подробная статистика пиров
 
   
 
 
 

[Цитировать]

Никита Кошкин - Концерт «Мегарон»; Гитарный квинтет; L’istesso tempo - Elena Papandreou, Singapore Symphony Orchestra, Lan Shui, New Hellenic Quartet
Жанр: Classical, guitar
Страна-производитель диска: Sweden
Год издания диска: 2012
Издатель (лейбл): BIS
Номер по каталогу: BIS-CD-1846
Дата записи: 2009, 2010
Аудиокодек: FLAC
Тип рипа: image+.cue
Битрейт аудио: lossless
Продолжительность: 77:03
Источник: собственный рип
Наличие сканов в содержимом раздачи: да
Треклист:
Никита Кошкин (1956)
[1]-[4] Концерт «Мегарон» для гитары с оркестром (2005)
[5]-[8] Гитарный квинтет (2004)
[9] L’istesso tempo (2010)
for cello and guitar (dedicated to Elena Papandreou)
[10] Polka Papandreou (2006)
for guitar and string orchestra
Исполнители:
Elena Papandreou guitar
Singapore Symphony Orchestra
Lan Shui
conductor ([1]–[4], [10])
New Hellenic Quartet ([5]-[8])
Simos Papanas violin I · Dimitris Chandrakis violin II
Chara Sira viola · Angelos Liakakis cello
Angelos Liakakis cello ([9])

Лог создания рипа

Exact Audio Copy V1.0 beta 3 from 29. August 2011
EAC extraction logfile from 10. January 2015, 22:46
Elena Papandreou / Koshkin - Megaron Concerto; Guitar Quintet
Used drive : HL-DT-STDVDRAM GU70N Adapter: 0 ID: 0
Read mode : SecureUtilize accurate stream : YesDefeat audio cache : YesMake use of C2 pointers : No
Read offset correction : 48Overread into Lead-In and Lead-Out : NoFill up missing offset samples with silence : YesDelete leading and trailing silent blocks : NoNull samples used in CRC calculations : YesUsed interface : Native Win32 interface for Win NT & 2000
Used output format : User Defined EncoderSelected bitrate : 128 kBit/sQuality : HighAdd ID3 tag : NoCommand line compressor : C:\Program Files (x86)\Exact Audio Copy\Flac\flac.exeAdditional command line options : -V -8 -T "Date=%year%" -T "Genre=%genre%" %source%
TOC of the extracted CD
Track | Start | Length | Start sector | End sector --------------------------------------------------------- 1 | 0:00.00 | 10:16.00 | 0 | 46199 2 | 10:16.00 | 6:36.58 | 46200 | 75957 3 | 16:52.58 | 11:06.46 | 75958 | 125953 4 | 27:59.29 | 10:36.10 | 125954 | 173663 5 | 38:35.39 | 5:44.46 | 173664 | 199509 6 | 44:20.10 | 7:36.56 | 199510 | 233765 7 | 51:56.66 | 3:38.16 | 233766 | 250131 8 | 55:35.07 | 7:48.41 | 250132 | 285272 9 | 63:23.48 | 11:42.40 | 285273 | 337962 10 | 75:06.13 | 1:57.45 | 337963 | 346782
Range status and errors
Selected range
Filename C:\temp\BIS-CD-1846 - Koshkin - Megaron Concerto; Guitar Quintet\Koshkin - Megaron Concerto; Guitar Quintet.wav
Peak level 99.0 % Extraction speed 2.3 X Range quality 99.9 % Test CRC 45273846 Copy CRC 45273846 Copy OK
No errors occurred
AccurateRip summary
Track 1 not present in databaseTrack 2 not present in databaseTrack 3 not present in databaseTrack 4 not present in databaseTrack 5 not present in databaseTrack 6 not present in databaseTrack 7 not present in databaseTrack 8 not present in databaseTrack 9 not present in databaseTrack 10 not present in database
None of the tracks are present in the AccurateRip database
End of status report
==== Log checksum 8E9DF43B314EE8134110D9F52C378A39B3D6BF7F37B04EE2570B3FCBED0F20A3 ====
[teatrix.ru].t9664.torrent 
Торрент: Зарегистрирован [ 2015-10-23 17:11 ] · 7BDDFFBCB20FA4A9DEF4924A35D8F91C58224D6E

Скачать .torrent

Скачать

27 KB

Статус: проверено
Скачан: 0 раз
Размер: 329 MB
terms.php



Быстрый ответ

Имя:

      
Для отправки сообщений необходимо включить JavaScript
Показать сообщения:    

Текущее время: 06-Дек 19:02

Часовой пояс: UTC + 3


Вы можете начинать темы
Вы можете отвечать на сообщения
Вы не можете редактировать свои сообщения
Вы не можете удалять свои сообщения
Вы не можете голосовать в опросах
Вы не можете прикреплять файлы к сообщениям
Вы можете скачивать файлы