(Concerto, 20th Century) Kurt Weill & Peteris Vasks - Violin Concertos (Academy of St. Martin in the Fields, Anthony Marwood, violin/conductor) - 2005, FLAC (image+.cue), lossless


Статистика раздачи [Обновить пиров]
Размер:  263 MB   |    Зарегистрирован:  1 год 1 месяц   |    Скачан:  1 раз

Полного источника не было: 4 месяца 2 дня

Личеров:  1  [  0 KB/s  ]   Подробная статистика пиров
 
   
 
 
 

[Цитировать]

Kurt Weill & Peteris Vasks - Violin Concertos - Marwood
Жанр: 20th Century
Страна-производитель диска: England
Год издания диска: 2005
Издатель (лейбл): Hyperion Records
Номер по каталогу: CDA67496
Дата записи: 07-09/12/2004
Аудиокодек: FLAC
Тип рипа: image+.cue
Битрейт аудио: lossless
Продолжительность: 57.05
Источник: собственный рип
Наличие сканов в содержимом раздачи: да
Исполнители: Academy of St. Martin in the Fields
Anthony Marwood, violin/conductor

Треклист:

Kurt Weill: Concerto for Violin and Wind Orchestra Op. 12
1. I. Andante con moto
02. II. Notturno (Allegro un poco tenuto) -
03. Cadenza (Moderato) -
04. Serenata
05. III. Allegro molto, un poco agitato
Peteris Vasks: Concerto for Violin and String Orchestra ("Distant Light")
06. Andante - Cadenza I -
07. Cantabile -
08. Mosso - Cadenza II - ... = c120 -
09. Cantabile - Agitato - Cadenza III - Tempo di Valse
10. Andante
Total 57.03

Лог создания рипа:

Exact Audio Copy V1.0 beta 3 from 29. August 2011
Отчёт EAC об извлечении, выполненном 30. мая 2015, 10:31
ASMIF, Anthony Marwood / Weill & Vasks - Violin Concertos
Дисковод: Optiarc DVD RW AD-7260S Adapter: 0 ID: 1
Режим чтения : ДостоверностьИспользование точного потока : ДаОтключение кэша аудио : ДаИспользование указателей C2 : Нет
Коррекция смещения при чтении : 48Способность читать области Lead-in и Lead-out : НетЗаполнение пропущенных сэмплов тишиной : ДаУдаление блоков с тишиной в начале и конце : НетПри вычислениях CRC использовались нулевые сэмплы : ДаИнтерфейс : Встроенный Win32-интерфейс для Win NT/2000
Выходной формат : Пользовательский кодировщикВыбранный битрейт : 896 kBit/sКачество : ВысокийДобавление ID3-тега : НетУтилита сжатия : C:\Program Files\FLAC Frontend\tools\flac.exeДополнительные параметры : -V -8 -T "Date=%year%" -T "Genre=%genre%" %source%
TOC извлечённого CD
Трек | Старт | Длительность | Начальный сектор | Конечный сектор --------------------------------------------------------------------- 1 | 0:00.00 | 9:24.49 | 0 | 42348 2 | 9:24.49 | 3:22.20 | 42349 | 57518 3 | 12:46.69 | 3:20.16 | 57519 | 72534 4 | 16:07.10 | 3:36.05 | 72535 | 88739 5 | 19:43.15 | 6:49.40 | 88740 | 119454 6 | 26:32.55 | 7:52.13 | 119455 | 154867 7 | 34:24.68 | 3:34.34 | 154868 | 170951 8 | 37:59.27 | 3:59.65 | 170952 | 188941 9 | 41:59.17 | 7:50.26 | 188942 | 224217 10 | 49:49.43 | 7:13.32 | 224218 | 256724
Характеристики диапазона извлечения и сообщения об ошибках
Выбранный диапазон
Имя файла D:\EAC\Мои раздачи\Weill & Vasks - Violin Concertos - Marwood\ASMIF, Anthony Marwood - Weill & Vasks - Violin Concertos.wav
Пиковый уровень 99.7 % Скорость извлечения 4.1 X Качество диапазона 100.0 % CRC теста 83CC24FF CRC копии 83CC24FF Копирование... OK
Ошибок не произошло
AccurateRip: сводка
Трек 1 : извлечено точно (доверие 6) [24D2DA49] (AR v1)Трек 2 : извлечено точно (доверие 6) [C21CFBDE] (AR v1)Трек 3 : извлечено точно (доверие 6) [3B0E73A6] (AR v1)Трек 4 : извлечено точно (доверие 6) [099BC209] (AR v1)Трек 5 : извлечено точно (доверие 6) [7BA042EA] (AR v1)Трек 6 : извлечено точно (доверие 6) [19EF0573] (AR v1)Трек 7 : извлечено точно (доверие 6) [6FC05251] (AR v1)Трек 8 : извлечено точно (доверие 5) [6630C95D] (AR v1)Трек 9 : извлечено точно (доверие 6) [42D8AD69] (AR v1)Трек 10 : извлечено точно (доверие 6) [5C9E0A52] (AR v1)
Все треки извлечены точно
Конец отчёта
==== Контрольная сумма отчёта 8AE6BEA8109E2566372267B8B96B4146B964FFA197C8D6B127FDDC2E5B962574 ====
[teatrix.ru].t9665.torrent 
Торрент: Зарегистрирован [ 2015-10-23 17:11 ] · 5A156E8F77D6DFEABBAC4DA3EBB031048970FC71

Скачать .torrent

Скачать

12 KB

Статус: проверено
Скачан: 1 раз
Размер: 263 MB
terms.php



Быстрый ответ

Имя:

      
Для отправки сообщений необходимо включить JavaScript
Показать сообщения:    

Текущее время: 11-Дек 03:22

Часовой пояс: UTC + 3


Вы можете начинать темы
Вы можете отвечать на сообщения
Вы не можете редактировать свои сообщения
Вы не можете удалять свои сообщения
Вы не можете голосовать в опросах
Вы не можете прикреплять файлы к сообщениям
Вы можете скачивать файлы