(Classical, Concerto) Vivaldi - Le Quattro Stagioni, Tartini - Devil's Trill Sonata (Joshua Bell, violin, Academy of St. Martin in the Fields, John Constable, harpsichord continuo) - 2008, FLAC (image+.cue), lossless


Статистика раздачи [Обновить пиров]
Размер:  272 MB   |    Зарегистрирован:  1 год 1 месяц   |    Скачан:  0 раз

Полного источника не было: Никогда

Личеров:  1  [  0 KB/s  ]   Подробная статистика пиров
 
   
 
 
 

[Цитировать]

Vivaldi - Le Quattro Stagioni, Tartini - Devil's Trill Sonata - Bell, Constable
Жанр: Classical, Concerto
Страна-производитель диска: EU
Год издания диска: 2008
Издатель (лейбл): Sony BMG Music
Номер по каталогу: 88697 35705 2
Дата записи: 2007-2008
Аудиокодек: FLAC
Тип рипа: image+.cue
Битрейт аудио: lossless
Продолжительность: 53.58
Источник: собственный рип
Наличие сканов в содержимом раздачи: да
Исполнители: Joshua Bell, violin
Academy of St. Martin in the Fields
John Constable, harpsichord continuo

Треклист:

Concertos for Violin, Strings and Basso Continuo, Op. 8 Nos. 1 - 4 "Le Quattro Stagione"
La Primavera, Concerto No. 1 in E Major, Op. 8 No. 1, RV 269
01. I. Allegro
02. II. Largo
03. III. Allegro
L'Estate, Concerto No. 2 in G Minor, Op. 8 No. 2, RV 315
04. I. Allegro non molto
05. II. Adagio
06. III. Presto
L'Autunno, Concerto No. 3 in F Major, Op. 8 No. 3, RV 293
07. I. Allegro
08. II. Adagio molto
09. III. Allegro
L'Inverno, Concerto No. 4 in F Minor, Op. 8 No. 4, RV 297
10. I. Allegro non molto
11. II. Largo
12. III. Allegro
13. Tartini: Violin Sonata in G minor "Devil's Trill Sonata"
Total 58.38

Лог создания рипа:

Exact Audio Copy V1.0 beta 3 from 29. August 2011
Отчёт EAC об извлечении, выполненном 2. июня 2015, 16:27
Joshua Bell / Vivaldi: The Four Seasons
Дисковод: Optiarc DVD RW AD-7260S Adapter: 0 ID: 1
Режим чтения : ДостоверностьИспользование точного потока : ДаОтключение кэша аудио : ДаИспользование указателей C2 : Нет
Коррекция смещения при чтении : 48Способность читать области Lead-in и Lead-out : НетЗаполнение пропущенных сэмплов тишиной : ДаУдаление блоков с тишиной в начале и конце : НетПри вычислениях CRC использовались нулевые сэмплы : ДаИнтерфейс : Встроенный Win32-интерфейс для Win NT/2000
Выходной формат : Пользовательский кодировщикВыбранный битрейт : 896 kBit/sКачество : ВысокийДобавление ID3-тега : НетУтилита сжатия : C:\Program Files\FLAC Frontend\tools\flac.exeДополнительные параметры : -V -8 -T "Date=%year%" -T "Genre=%genre%" %source%
TOC извлечённого CD
Трек | Старт | Длительность | Начальный сектор | Конечный сектор --------------------------------------------------------------------- 1 | 0:00.00 | 3:33.19 | 0 | 15993 2 | 3:33.19 | 2:35.56 | 15994 | 27674 3 | 6:09.00 | 4:11.12 | 27675 | 46511 4 | 10:20.12 | 5:25.59 | 46512 | 70945 5 | 15:45.71 | 1:53.53 | 70946 | 79473 6 | 17:39.49 | 2:43.25 | 79474 | 91723 7 | 20:22.74 | 5:14.19 | 91724 | 115292 8 | 25:37.18 | 2:05.39 | 115293 | 124706 9 | 27:42.57 | 3:24.02 | 124707 | 140008 10 | 31:06.59 | 3:24.11 | 140009 | 155319 11 | 34:30.70 | 1:48.01 | 155320 | 163420 12 | 36:18.71 | 3:22.56 | 163421 | 178626 13 | 39:41.52 | 14:15.68 | 178627 | 242819 14 | 56:29.45 | 6:38.39 | 254220 | 284108
Характеристики диапазона извлечения и сообщения об ошибках
Выбранный диапазон
Имя файла D:\EAC\Мои раздачи\Vivaldi - Le Quattro Stagioni - Bell, Constable\Joshua Bell - Vivaldi- The Four Seasons.wav
Пиковый уровень 95.5 % Скорость извлечения 4.1 X Качество диапазона 100.0 % CRC теста 1C973FF2 CRC копии 1C973FF2 Копирование... OK
Ошибок не произошло
AccurateRip: сводка
Трек 1 : извлечено точно (доверие 6) [5B2D41BA] (AR v2)Трек 2 : извлечено точно (доверие 6) [7EE2B1DD] (AR v2)Трек 3 : извлечено точно (доверие 6) [F9685169] (AR v2)Трек 4 : извлечено точно (доверие 6) [ABD321A7] (AR v2)Трек 5 : извлечено точно (доверие 6) [99B69E30] (AR v2)Трек 6 : извлечено точно (доверие 6) [82CC3362] (AR v2)Трек 7 : извлечено точно (доверие 6) [B0ED078B] (AR v2)Трек 8 : извлечено точно (доверие 6) [E5E22C60] (AR v2)Трек 9 : извлечено точно (доверие 6) [8269BB57] (AR v2)Трек 10 : извлечено точно (доверие 6) [1976673A] (AR v2)Трек 11 : извлечено точно (доверие 6) [280EC8C1] (AR v2)Трек 12 : извлечено точно (доверие 6) [6C6A7B15] (AR v2)Трек 13 : извлечено точно (доверие 6) [D25DFC16] (AR v2)
Все треки извлечены точно
Конец отчёта
==== Контрольная сумма отчёта D28EE12E848759884B4F5E0D7ECBCC7AAB348A3BE9BEEAD41D5EEA37FFC315F2 ====
[teatrix.ru].t9666.torrent 
Торрент: Зарегистрирован [ 2015-10-23 17:11 ] · 3E5DB85FE361DA6589DECE0656BE000A8C878E9B

Скачать .torrent

Скачать

12 KB

Статус: проверено
Скачан: 0 раз
Размер: 272 MB
terms.php



Быстрый ответ

Имя:

      
Для отправки сообщений необходимо включить JavaScript
Показать сообщения:    

Текущее время: 06-Дек 22:55

Часовой пояс: UTC + 3


Вы можете начинать темы
Вы можете отвечать на сообщения
Вы не можете редактировать свои сообщения
Вы не можете удалять свои сообщения
Вы не можете голосовать в опросах
Вы не можете прикреплять файлы к сообщениям
Вы можете скачивать файлы