(Classical, Piano) Чайковский (Tchaikovsky) - Концерт № 1 для фортепиано с оркестром си-бемоль минор, соч. 23; Аренский (Arensky) - Концерт для фортепиано с оркестром фа минор, соч. 2 - Григорий Гинзбург (Ginzburg) - 1995, FLAC (tracks+.cue) lossless


Статистика раздачи [Обновить пиров]
Размер:  286 MB   |    Зарегистрирован:  1 год 2 месяца   |    Скачан:  0 раз

Полного источника не было: Никогда

Личеров:  1  [  0 KB/s  ]   Подробная статистика пиров
 
   
 
 
 

[Цитировать]

Петр Чайковский (P.Tchaikovsky) - Концерт № 1 для фортепиано с оркестром си-бемоль минор, соч. 23; Антон Аренский (A.Arensky) - Концерт для фортепиано с оркестром фа минор, соч. 2 - Григорий Гинзбург (Grigori Ginzburg)
Жанр: Classical, Piano
Страна-производитель диска: Russia
Год издания диска: 1995
Издатель (лейбл): Russian Disc
Номер по каталогу: RDCD 00343
Дата записи: 1948-1950
Аудиокодек: FLAC
Тип рипа: tracks+.cue
Битрейт аудио: lossless
Продолжительность: 1:02:01
Источник: собственный рип
Наличие сканов в содержимом раздачи: да
Треклист:
П. Чайковский (1840 – 1893)
Концерт № 1 для фортепиано с оркестром си-бемоль минор, соч. 23

1 1. Allegro non troppo e molto maestoso. Allegro con spirito — 20.13
2 2. Andante semplice — 7.44
3 3. Allegro con fuoco — 6.44
А. Аренский (1861 – 1906)
Концерт для фортепиано с оркестром фа минор, соч. 2

4 1. Allegro maestoso — 12.00
5 2. Andante con moto — 8.11
6 3. Allegro molto — 6.56
Исполнители:
Григорий Гинзбург - фортепиано
Государственный симфонический оркестр СССР, дирижер Константин Иванов (1 – 3)
Симфонический оркестр Всесоюзного радио, дирижер Сергей Горчаков (4 – 6)

Лог создания рипа

Exact Audio Copy V1.0 beta 2 from 29. April 2011
EAC extraction logfile from 19. May 2015, 22:58
Grigori Ginzburg / P.Tchaikovsky, A.Arensky
Used drive : Optiarc DVD RW AD-5280S Adapter: 1 ID: 1
Read mode : SecureUtilize accurate stream : YesDefeat audio cache : YesMake use of C2 pointers : No
Read offset correction : 48Overread into Lead-In and Lead-Out : NoFill up missing offset samples with silence : YesDelete leading and trailing silent blocks : NoNull samples used in CRC calculations : YesUsed interface : Installed external ASPI interfaceGap handling : Appended to previous track
Used output format : User Defined EncoderSelected bitrate : 128 kBit/sQuality : HighAdd ID3 tag : NoCommand line compressor : C:\Program Files\FLAC\flac.exeAdditional command line options : -V -8 -T "Genre=%genre%" -T "Artist=%artist%" -T "Title=%title%" -T "Album=%albumtitle%" -T "Date=%year%" -T "Tracknumber=%tracknr%" -T "Comment=%comment%" %source%
TOC of the extracted CD
Track | Start | Length | Start sector | End sector --------------------------------------------------------- 1 | 0:00.00 | 20:15.00 | 0 | 91124 2 | 20:15.00 | 7:47.00 | 91125 | 126149 3 | 28:02.00 | 6:46.00 | 126150 | 156599 4 | 34:48.00 | 12:02.00 | 156600 | 210749 5 | 46:50.00 | 8:13.00 | 210750 | 247724 6 | 55:03.00 | 6:58.00 | 247725 | 279074
Track 1
Filename C:\Grigori Ginzburg (1995) - P.Tchaikovsky, A.Arensky\01 - Piano Concerto No.1 B flat minor op.23. I.Allegro non troppo e molto maestoso. Allegro con spirito.wav
Pre-gap length 0:00:02.00
Peak level 68.5 % Extraction speed 6.3 X Track quality 100.0 % Test CRC 1B9A2913 Copy CRC 1B9A2913 Track not present in AccurateRip database Copy OK
Track 2
Filename C:\Grigori Ginzburg (1995) - P.Tchaikovsky, A.Arensky\02 - Piano Concerto No.1 B flat minor op.23. II.Andante semplice.wav
Pre-gap length 0:00:02.00
Peak level 60.9 % Extraction speed 7.6 X Track quality 100.0 % Test CRC AAC006C9 Copy CRC AAC006C9 Track not present in AccurateRip database Copy OK
Track 3
Filename C:\Grigori Ginzburg (1995) - P.Tchaikovsky, A.Arensky\03 - Piano Concerto No.1 B flat minor op.23. III.Allegro con fuoco.wav
Pre-gap length 0:00:02.00
Peak level 67.0 % Extraction speed 7.6 X Track quality 99.9 % Test CRC A397E130 Copy CRC A397E130 Track not present in AccurateRip database Copy OK
Track 4
Filename C:\Grigori Ginzburg (1995) - P.Tchaikovsky, A.Arensky\04 - Piano Concerto F minor op.2 I.Allegro maestoso.wav
Pre-gap length 0:00:02.00
Peak level 75.3 % Extraction speed 9.2 X Track quality 100.0 % Test CRC 6131F308 Copy CRC 6131F308 Track not present in AccurateRip database Copy OK
Track 5
Filename C:\Grigori Ginzburg (1995) - P.Tchaikovsky, A.Arensky\05 - Piano Concerto F minor op.2 II.Andante con moto.wav
Pre-gap length 0:00:02.00
Peak level 62.6 % Extraction speed 9.2 X Track quality 99.9 % Test CRC 7251377C Copy CRC 7251377C Track not present in AccurateRip database Copy OK
Track 6
Filename C:\Grigori Ginzburg (1995) - P.Tchaikovsky, A.Arensky\06 - Piano Concerto F minor op.2 III.Allegro molto.wav
Pre-gap length 0:00:02.00
Peak level 69.0 % Extraction speed 9.5 X Track quality 99.9 % Test CRC 6726A9EC Copy CRC 6726A9EC Track not present in AccurateRip database Copy OK
None of the tracks are present in the AccurateRip database
No errors occurred
End of status report
==== Log checksum 0B34C388C0E989D549C8CCBA1982E42876DEDEC87795C9B42D9A0BC6F4747C26 ====

Содержание индексной карты (.CUE)

REM GENRE ClassicalREM DATE 1995REM DISCID 430E8906REM COMMENT "ExactAudioCopy v1.0b2"PERFORMER "Grigori Ginzburg"TITLE "P.Tchaikovsky, A.Arensky"FILE "01 - Piano Concerto No.1 B flat minor op.23. I.Allegro non troppo e molto maestoso. Allegro con spirito.wav" WAVE TRACK 01 AUDIO TITLE "Piano Concerto No.1 B flat minor op.23. I.Allegro non troppo e molto maestoso..." PERFORMER "Grigori Ginzburg" INDEX 01 00:00:00 TRACK 02 AUDIO TITLE "Piano Concerto No.1 B flat minor op.23. II.Andante semplice" PERFORMER "Grigori Ginzburg" INDEX 00 20:13:00FILE "02 - Piano Concerto No.1 B flat minor op.23. II.Andante semplice.wav" WAVE INDEX 01 00:00:00 TRACK 03 AUDIO TITLE "Piano Concerto No.1 B flat minor op.23. III.Allegro con fuoco" PERFORMER "Grigori Ginzburg" INDEX 00 07:45:00FILE "03 - Piano Concerto No.1 B flat minor op.23. III.Allegro con fuoco.wav" WAVE INDEX 01 00:00:00 TRACK 04 AUDIO TITLE "Piano Concerto F minor op.2 I.Allegro maestoso" PERFORMER "Grigori Ginzburg" INDEX 00 06:44:00FILE "04 - Piano Concerto F minor op.2 I.Allegro maestoso.wav" WAVE INDEX 01 00:00:00 TRACK 05 AUDIO TITLE "Piano Concerto F minor op.2 II.Andante con moto" PERFORMER "Grigori Ginzburg" INDEX 00 12:00:00FILE "05 - Piano Concerto F minor op.2 II.Andante con moto.wav" WAVE INDEX 01 00:00:00 TRACK 06 AUDIO TITLE "Piano Concerto F minor op.2 III.Allegro molto" PERFORMER "Grigori Ginzburg" INDEX 00 08:11:00FILE "06 - Piano Concerto F minor op.2 III.Allegro molto.wav" WAVE INDEX 01 00:00:00

Доп. информация

Записи 1950 г. (1 – 3), 1948 г. (4 – 6)
Реставратор О. Гурова
Редактор К. Симонян
[teatrix.ru].t9667.torrent 
Торрент: Зарегистрирован [ 2015-10-23 17:11 ] · 4FB66DB77039429E0192C8FB6B46612A68DB043F

Скачать .torrent

Скачать

13 KB

Статус: проверено
Скачан: 0 раз
Размер: 286 MB
terms.php



Быстрый ответ

Имя:

      
Для отправки сообщений необходимо включить JavaScript
Показать сообщения:    

Текущее время: 19-Янв 22:17

Часовой пояс: UTC + 3


Вы можете начинать темы
Вы можете отвечать на сообщения
Вы не можете редактировать свои сообщения
Вы не можете удалять свои сообщения
Вы не можете голосовать в опросах
Вы не можете прикреплять файлы к сообщениям
Вы можете скачивать файлы