(Classical, Orchestral) Mauro Giuliani - Concerto for Guitar and Orchestra no. 3, Gran Quintetto, Variations for Guitar & String Quartet - Edoardo Catemario - Wiener Akademie, cond. Martin Haselbock - 2005, FLAC (tracks+.cue) lossless


Статистика раздачи [Обновить пиров]
Размер:  275 MB   |    Зарегистрирован:  1 год 1 месяц   |    Скачан:  0 раз

Полного источника не было: Никогда

Личеров:  1  [  0 KB/s  ]   Подробная статистика пиров
 
   
 
 
 

[Цитировать]

Mauro Giuliani (1781-1829) - Concerto for Guitar and Orchestra no. 3, Gran Quintetto, Variations for Guitar & String Quartet - Edoardo Catemario - Wiener Akademie, cond. Martin Haselbock
Жанр: Classical, Orchestral
Страна-производитель диска: Germany
Год издания диска: 2005
Издатель (лейбл): Arts Music
Номер по каталогу: 47689-2
Аудиокодек: FLAC
Тип рипа: tracks+.cue
Битрейт аудио: lossless
Продолжительность: 68:55
Источник: релизер
сайт-источник/ник/другое: duckjammy
Наличие сканов в содержимом раздачи: да
Треклист:
Guitar Concerto No. 3 in F major, Op. 70 (versions for guitar & orch; gt. & string quartet)
1. Allegro moderato 12:08
2. Andantino alla Siciliana con variazioni 6:24
3. Polonaise (Allegretto) 7:49
Variations on "Nel cor più non mi sento" and Polonaise (Gran Quintetto), for guitar & string quartet (or guitar & piano), Op. 65
4. Introduzione 1:49
5. Theme and Variations 7:35
6. Polonese 8:08
Variations on "Deh! calma o ciel", for guitar & string quartet, Op. 101
7. Introduzione 1:39
8. Variazioni 6:11
Variations on "Nume perdonami", for guitar & string quartet, Op. 102
9. Introduzione and Thema 2:32
10. Variazioni 5:29
Variations on a favorite waltz, for guitar & string quartet, Op. 103
11. Introduzione and Thema 2:24
12. Variations 6:43
Исполнители:
Edoardo Catemario - guitar, Martin Haselböck - Conductor, Wiener Akademie Orchester

Лог создания рипа

Exact Audio Copy V1.0 beta 3 from 29. August 2011
EAC extraction logfile from 30. May 2015, 15:47
Edoardo Catemario / Giuliani - Concerto for Guitar no. 3, Gran Quintetto
Used drive : TSSTcorpCDDVDW SE-208DB Adapter: 1 ID: 0
Read mode : SecureUtilize accurate stream : YesDefeat audio cache : YesMake use of C2 pointers : No
Read offset correction : 6Overread into Lead-In and Lead-Out : NoFill up missing offset samples with silence : YesDelete leading and trailing silent blocks : NoNull samples used in CRC calculations : YesUsed interface : Native Win32 interface for Win NT & 2000Gap handling : Appended to previous track
Used output format : User Defined EncoderSelected bitrate : 1024 kBit/sQuality : HighAdd ID3 tag : NoCommand line compressor : C:\Program Files (x86)\Exact Audio Copy\FLAC\FLAC.EXEAdditional command line options : -8 -V -T "ARTIST=%artist%" -T "TITLE=%title%" -T "ALBUM=%albumtitle%" -T "DATE=%year%" -T "TRACKNUMBER=%tracknr%" -T "GENRE=%genre%" -T "PERFORMER=%albuminterpret%" -T "COMPOSER=%composer%" %haslyrics%--tag-from-file=LYRICS="%lyricsfile%"%haslyrics% -T "ALBUMARTIST=%albumartist%" -T "DISCNUMBER=%cdnumber%" -T "TOTALDISCS=%totalcds%" -T "TOTALTRACKS=%numduckjammytracks%" -T "COMMENT=%comment%" %source% -o %dest%
TOC of the extracted CD
Track | Start | Length | Start sector | End sector --------------------------------------------------------- 1 | 0:00.00 | 12:08.33 | 0 | 54632 2 | 12:08.33 | 6:24.51 | 54633 | 83483 3 | 18:33.09 | 7:49.09 | 83484 | 118667 4 | 26:22.18 | 1:49.06 | 118668 | 126848 5 | 28:11.24 | 7:35.45 | 126849 | 161018 6 | 35:46.69 | 8:08.24 | 161019 | 197642 7 | 43:55.18 | 1:39.39 | 197643 | 205106 8 | 45:34.57 | 6:11.06 | 205107 | 232937 9 | 51:45.63 | 2:32.15 | 232938 | 244352 10 | 54:18.03 | 5:29.60 | 244353 | 269087 11 | 59:47.63 | 2:24.51 | 269088 | 279938 12 | 62:12.39 | 6:43.36 | 279939 | 310199
Track 1
Filename C:\E\01 - Concerto for Guitar ''terzina'' no. 3 - I. Allegro moderato.wav
Pre-gap length 0:00:02.00
Peak level 99.8 % Extraction speed 1.7 X Track quality 100.0 % Test CRC 8A56DE5D Copy CRC 8A56DE5D Accurately ripped (confidence 4) [BBDC46CC] (AR v2) Copy OK
Track 2
Filename C:\E\02 - Concerto for Guitar ''terzina'' no. 3 - II. Andantino alla Siciliana con variazioni.wav
Pre-gap length 0:00:02.37
Peak level 37.0 % Extraction speed 3.6 X Track quality 100.0 % Test CRC BDE045B1 Copy CRC BDE045B1 Accurately ripped (confidence 4) [4A1CE37A] (AR v2) Copy OK
Track 3
Filename C:\E\03 - Concerto for Guitar ''terzina'' no. 3 - III. Polonaise (Allegretto).wav
Pre-gap length 0:00:01.45
Peak level 99.8 % Extraction speed 3.5 X Track quality 99.9 % Test CRC 4B10FD61 Copy CRC 4B10FD61 Accurately ripped (confidence 4) [BF3D62BB] (AR v2) Copy OK
Track 4
Filename C:\E\04 - Gran Quintetto for guitar & strings - I. Introduzione.wav
Pre-gap length 0:00:06.89
Peak level 46.8 % Extraction speed 3.3 X Track quality 100.0 % Test CRC 32E8D692 Copy CRC 32E8D692 Accurately ripped (confidence 4) [D6AA67D8] (AR v2) Copy OK
Track 5
Filename C:\E\05 - Gran Quintetto for guitar & strings - II. Theme and Variations.wav
Peak level 44.1 % Extraction speed 4.2 X Track quality 100.0 % Test CRC 1AA3806B Copy CRC 1AA3806B Accurately ripped (confidence 4) [04C2D2F2] (AR v2) Copy OK
Track 6
Filename C:\E\06 - Gran Quintetto for guitar & strings - III. Polonese.wav
Peak level 70.7 % Extraction speed 4.3 X Track quality 100.0 % Test CRC 984B9B8A Copy CRC 984B9B8A Accurately ripped (confidence 4) [10186EAB] (AR v2) Copy OK
Track 7
Filename C:\E\07 - Variazioni su ''Deh calma oh ciel'' - I. Introduzione.wav
Pre-gap length 0:00:06.09
Peak level 39.0 % Extraction speed 3.9 X Track quality 100.0 % Test CRC A6D97709 Copy CRC A6D97709 Accurately ripped (confidence 4) [FCCB0A57] (AR v2) Copy OK
Track 8
Filename C:\E\08 - Variazioni su ''Deh calma oh ciel'' - II. Variazioni.wav
Peak level 70.5 % Extraction speed 4.5 X Track quality 100.0 % Test CRC 7FA7D520 Copy CRC 7FA7D520 Accurately ripped (confidence 4) [149789E4] (AR v2) Copy OK
Track 9
Filename C:\E\09 - Variazioni su ''Nume perdonami in tale istante'' - I. Introduzione and Thema.wav
Pre-gap length 0:00:04.85
Peak level 49.3 % Extraction speed 4.4 X Track quality 100.0 % Test CRC 03312EAB Copy CRC 03312EAB Accurately ripped (confidence 4) [116A6E5D] (AR v2) Copy OK
Track 10
Filename C:\E\10 - Variazioni su ''Nume perdonami in tale istante'' - II. Variazioni.wav
Peak level 66.7 % Extraction speed 4.9 X Track quality 100.0 % Test CRC F35645AB Copy CRC F35645AB Accurately ripped (confidence 3) [B1E3937B] (AR v2) Copy OK
Track 11
Filename C:\E\11 - Variations sur un Valse favori - I. Introduzione and Thema.wav
Pre-gap length 0:00:04.57
Peak level 57.3 % Extraction speed 4.1 X Track quality 100.0 % Test CRC A4AACEAF Copy CRC A4AACEAF Accurately ripped (confidence 4) [EC06479B] (AR v2) Copy OK
Track 12
Filename C:\E\12 - Variations sur un Valse favori - II. Variations.wav
Peak level 54.5 % Extraction speed 4.6 X Track quality 100.0 % Test CRC 88E40CA5 Copy CRC 88E40CA5 Accurately ripped (confidence 4) [CC75DF37] (AR v2) Copy OK
All tracks accurately ripped
No errors occurred
End of status report
==== Log checksum 5C0979ED69CED32D3F05C7C455B7B5BD7C76335E754DBBE43A9AA360DB821068 ====

Содержание индексной карты (.CUE)

REM GENRE ClassicalREM DATE 2005REM DISCID AC10280CREM COMMENT "ExactAudioCopy v1.0b3"PERFORMER "Edoardo Catemario"TITLE "Giuliani - Concerto for Guitar no. 3, Gran Quintetto"FILE "01 - Concerto for Guitar ''terzina'' no. 3 - I. Allegro moderato.flac" WAVE TRACK 01 AUDIO TITLE "Concerto for Guitar 'terzina' no. 3 - I. Allegro moderato" PERFORMER "Edoardo Catemario" ISRC GBCRW0468901 INDEX 01 00:00:00FILE "02 - Concerto for Guitar ''terzina'' no. 3 - II. Andantino alla Siciliana con variazioni.flac" WAVE TRACK 02 AUDIO TITLE "Concerto for Guitar 'terzina' no. 3 - II. Andantino alla Siciliana con variaz..." PERFORMER "Edoardo Catemario" ISRC GBCRW0468902 INDEX 01 00:00:00FILE "03 - Concerto for Guitar ''terzina'' no. 3 - III. Polonaise (Allegretto).flac" WAVE TRACK 03 AUDIO TITLE "Concerto for Guitar 'terzina' no. 3 - III. Polonaise (Allegretto)" PERFORMER "Edoardo Catemario" ISRC GBCRW0468903 INDEX 01 00:00:00FILE "04 - Gran Quintetto for guitar & strings - I. Introduzione.flac" WAVE TRACK 04 AUDIO TITLE "Gran Quintetto for guitar & strings - I. Introduzione" PERFORMER "Edoardo Catemario" ISRC GBCRW0468904 INDEX 01 00:00:00FILE "05 - Gran Quintetto for guitar & strings - II. Theme and Variations.flac" WAVE TRACK 05 AUDIO TITLE "Gran Quintetto for guitar & strings - II. Theme and Variations" PERFORMER "Edoardo Catemario" ISRC GBCRW0468905 INDEX 01 00:00:00FILE "06 - Gran Quintetto for guitar & strings - III. Polonese.flac" WAVE TRACK 06 AUDIO TITLE "Gran Quintetto for guitar & strings - III. Polonese" PERFORMER "Edoardo Catemario" ISRC GBCRW0468906 INDEX 01 00:00:00FILE "07 - Variazioni su ''Deh calma oh ciel'' - I. Introduzione.flac" WAVE TRACK 07 AUDIO TITLE "Variazioni su 'Deh calma oh ciel' - I. Introduzione" PERFORMER "Edoardo Catemario" ISRC GBCRW0468907 INDEX 01 00:00:00FILE "08 - Variazioni su ''Deh calma oh ciel'' - II. Variazioni.flac" WAVE TRACK 08 AUDIO TITLE "Variazioni su 'Deh calma oh ciel' - II. Variazioni" PERFORMER "Edoardo Catemario" ISRC GBCRW0468908 INDEX 01 00:00:00FILE "09 - Variazioni su ''Nume perdonami in tale istante'' - I. Introduzione and Thema.flac" WAVE TRACK 09 AUDIO TITLE "Variazioni su 'Nume perdonami in tale istante' - I. Introduzione and Thema" PERFORMER "Edoardo Catemario" ISRC GBCRW0468909 INDEX 01 00:00:00FILE "10 - Variazioni su ''Nume perdonami in tale istante'' - II. Variazioni.flac" WAVE TRACK 10 AUDIO TITLE "Variazioni su 'Nume perdonami in tale istante' - II. Variazioni" PERFORMER "Edoardo Catemario" ISRC GBCRW0468910 INDEX 01 00:00:00FILE "11 - Variations sur un Valse favori - I. Introduzione and Thema.flac" WAVE TRACK 11 AUDIO TITLE "Variations sur un Valse favori - I. Introduzione and Thema" PERFORMER "Edoardo Catemario" ISRC GBCRW0468911 INDEX 01 00:00:00FILE "12 - Variations sur un Valse favori - II. Variations.flac" WAVE TRACK 12 AUDIO TITLE "Variations sur un Valse favori - II. Variations" PERFORMER "Edoardo Catemario" ISRC GBCRW0468912 INDEX 01 00:00:00
[teatrix.ru].t9668.torrent 
Торрент: Зарегистрирован [ 2015-10-23 17:11 ] · CCE3A2DBAE5B98CDA1C889BA94B177E291F0112F

Скачать .torrent

Скачать

14 KB

Статус: проверено
Скачан: 0 раз
Размер: 275 MB
terms.php



Быстрый ответ

Имя:

      
Для отправки сообщений необходимо включить JavaScript
Показать сообщения:    

Текущее время: 10-Дек 21:36

Часовой пояс: UTC + 3


Вы можете начинать темы
Вы можете отвечать на сообщения
Вы не можете редактировать свои сообщения
Вы не можете удалять свои сообщения
Вы не можете голосовать в опросах
Вы не можете прикреплять файлы к сообщениям
Вы можете скачивать файлы