(Classical, Chamber) Aaron Rosand plays Ernst, Joachim, Hubay, Enesco, Lehar, Codaed, Ysaye, Wieniawsky - 1993, FLAC (image+.cue), lossless


Статистика раздачи [Обновить пиров]
Размер:  633 MB   |    Зарегистрирован:  1 год 1 месяц   |    Скачан:  0 раз

Полного источника не было: Никогда

 
   
 
 
 

[Цитировать]

Aaron Rosand plays Ernst, Joachim, Hubay, Enesco, Lehar, Codaed, Ysaye, Wieniawsky
Жанр: Classical, Chamber
Страна-производитель диска: USA
Год издания диска: 1993
Издатель (лейбл): Vox Box
Номер по каталогу: CDX 5102
Дата записи: 1971-1973
Аудиокодек: FLAC
Тип рипа: image+.cue
Битрейт аудио: lossless
Продолжительность: 65.51 + 68.03
Источник: собственный рип
Наличие сканов в содержимом раздачи: да
Исполнители: Aaron Rosand, violin
Orchestra de Radio Luxembourg, Louis de Froment

CD1:Треклист:

Joachim: Violin Concerto in D minor, Op. 11 'Hungarian'
01. I. Allegro un poco maestoso
02. II. Romanze: Andante
03. III. Finale alla Zingara: Allegro con spirito
Hubay - Violin Concerto, Op. 99:
04. I. Introduction quasi fantasia: Moderato
05. II. Scherzo
06. III. Adagio
07. IV. Finale: Allegro con fuoco
08. Enesco - Prelude for Solo Violin, Op. 9
Total 65.51

Лог создания рипа:

Exact Audio Copy V1.0 beta 3 from 29. August 2011
Отчёт EAC об извлечении, выполненном 31. мая 2015, 22:09
Aaron Rosand / Aaron Rosand plays Ernst, Joachim, Hubay, Enesco, Lehar, Codaed, Ysaye, Wieniawski - CD1
Дисковод: Optiarc DVD RW AD-7260S Adapter: 0 ID: 1
Режим чтения : Достоверность
Использование точного потока : Да
Отключение кэша аудио : Да
Использование указателей C2 : Нет
Коррекция смещения при чтении : 48
Способность читать области Lead-in и Lead-out : Нет
Заполнение пропущенных сэмплов тишиной : Да
Удаление блоков с тишиной в начале и конце : Нет
При вычислениях CRC использовались нулевые сэмплы : Да
Интерфейс : Встроенный Win32-интерфейс для Win NT/2000
Выходной формат : Пользовательский кодировщик
Выбранный битрейт : 896 kBit/s
Качество : Высокий
Добавление ID3-тега : Нет
Утилита сжатия : C:\Program Files\FLAC Frontend\tools\flac.exe
Дополнительные параметры : -V -8 -T "Date=%year%" -T "Genre=%genre%" %source%
TOC извлечённого CD
Трек | Старт | Длительность | Начальный сектор | Конечный сектор
---------------------------------------------------------------------
1 | 0:00.32 | 19:09.00 | 32 | 86206
2 | 19:09.32 | 8:53.00 | 86207 | 126181
3 | 28:02.32 | 7:38.00 | 126182 | 160531
4 | 35:40.32 | 5:10.08 | 160532 | 183789
5 | 40:50.40 | 4:17.20 | 183790 | 203084
6 | 45:07.60 | 9:08.12 | 203085 | 244196
7 | 54:15.72 | 7:31.03 | 244197 | 278024
8 | 61:47.00 | 4:03.57 | 278025 | 296306
Характеристики диапазона извлечения и сообщения об ошибках
Выбранный диапазон
Имя файла D:\EAC\Мои раздачи\Aaron Rosand plays Ernst, Joachim, Hubay, Enesco, Lehar, Codaed, Ysaye, Wieniawski\CD1\Aaron Rosand - Aaron Rosand plays Ernst, Joachim, Hubay, Enesco, Lehar, Codaed, Ysaye, Wieniawski - CD1.wav
Пиковый уровень 82.5 %
Скорость извлечения 4.1 X
Качество диапазона 100.0 %
CRC теста 8507B3FB
CRC копии 8507B3FB
Копирование... OK
Ошибок не произошло
AccurateRip: сводка
Трек 1 : извлечено точно (доверие 1) [E902DBAF] (AR v2)
Трек 2 : извлечено точно (доверие 1) [B600BC03] (AR v2)
Трек 3 : извлечено точно (доверие 1) [BF29BF10] (AR v2)
Трек 4 : извлечено точно (доверие 1) [D196CB46] (AR v2)
Трек 5 : извлечено точно (доверие 1) [7FA2737D] (AR v2)
Трек 6 : извлечено точно (доверие 1) [E91FFA21] (AR v2)
Трек 7 : извлечено точно (доверие 1) [9567E660] (AR v2)
Трек 8 : извлечено точно (доверие 1) [7F5CFF29] (AR v2)
Все треки извлечены точно
Конец отчёта
==== Контрольная сумма отчёта B95D1309EABF631448D6416A592FF4864734FC6CEBFEBC7B24299BB4EFC489E5 ====

CD2:Треклист:

01. Ernst: Violin Concerto in F-sharp Minor, Op. 23
02. Codard: Concerto romantique in A Minor, Op. 35
03. Ysaye: Chant d'hiver in B Minor, Op. 15
04. Lehar: Hungarian Fantasy, Op. 45
05. Hubay: Hejre Kati for Violin and Orchestra, Op. 32
06. Wieniawski: Concert Polonaise in D Major for Violin and Orchestra
Total 68.03

Лог создания рипа:

Exact Audio Copy V1.0 beta 3 from 29. August 2011
Отчёт EAC об извлечении, выполненном 31. мая 2015, 21:22
Aaron Rosand / Aaron Rosand plays Ernst, Joachim, Hubay, Enesco, Lehar, Codaed, Ysaye, Wieniawski - CD2
Дисковод: Optiarc DVD RW AD-7260S Adapter: 0 ID: 1
Режим чтения : Достоверность
Использование точного потока : Да
Отключение кэша аудио : Да
Использование указателей C2 : Нет
Коррекция смещения при чтении : 48
Способность читать области Lead-in и Lead-out : Нет
Заполнение пропущенных сэмплов тишиной : Да
Удаление блоков с тишиной в начале и конце : Нет
При вычислениях CRC использовались нулевые сэмплы : Да
Интерфейс : Встроенный Win32-интерфейс для Win NT/2000
Выходной формат : Пользовательский кодировщик
Выбранный битрейт : 896 kBit/s
Качество : Высокий
Добавление ID3-тега : Нет
Утилита сжатия : C:\Program Files\FLAC Frontend\tools\flac.exe
Дополнительные параметры : -V -8 -T "Date=%year%" -T "Genre=%genre%" %source%
TOC извлечённого CD
Трек | Старт | Длительность | Начальный сектор | Конечный сектор
---------------------------------------------------------------------
1 | 0:00.33 | 16:44.00 | 33 | 75332
2 | 16:44.33 | 20:45.00 | 75333 | 168707
3 | 37:29.33 | 10:46.00 | 168708 | 217157
4 | 48:15.33 | 8:07.00 | 217158 | 253682
5 | 56:22.33 | 6:15.50 | 253683 | 281857
6 | 62:38.08 | 5:25.72 | 281858 | 306304
Характеристики диапазона извлечения и сообщения об ошибках
Выбранный диапазон
Имя файла D:\EAC\Мои раздачи\Aaron Rosand plays Ernst, Joachim, Hubay, Enesco, Lehar, Codaed, Ysaye, Wieniawski\CD2\Aaron Rosand - Aaron Rosand plays Ernst, Joachim, Hubay, Enesco, Lehar, Codaed, Ysaye, Wieniawski - CD2.wav
Пиковый уровень 89.9 %
Скорость извлечения 4.4 X
Качество диапазона 100.0 %
CRC теста 94451B3D
CRC копии 94451B3D
Копирование... OK
Ошибок не произошло
AccurateRip: сводка
Трек 1 : извлечено точно (доверие 2) [F57A8AAF] (AR v2)
Трек 2 : извлечено точно (доверие 2) [7D235BAE] (AR v2)
Трек 3 : извлечено точно (доверие 2) [7F06523A] (AR v2)
Трек 4 : извлечено точно (доверие 2) [C52F2865] (AR v2)
Трек 5 : извлечено точно (доверие 2) [E51D16A8] (AR v2)
Трек 6 : извлечено точно (доверие 2) [BB67E3EB] (AR v2)
Все треки извлечены точно
Конец отчёта
==== Контрольная сумма отчёта 3E4129479EB6F4E6A1721C51002F295E3875D3A436ABFE2411A6673A16671E7E ====
[teatrix.ru].t9669.torrent 
Торрент: Зарегистрирован [ 2015-10-23 17:11 ] · FDCCC1044AD8491C35BAF19D945E39313B237E8D

Скачать .torrent

Скачать

14 KB

Статус: проверено
Скачан: 0 раз
Размер: 633 MB
terms.php



Быстрый ответ

Имя:

      
Для отправки сообщений необходимо включить JavaScript
Показать сообщения:    

Текущее время: 10-Дек 00:20

Часовой пояс: UTC + 3


Вы можете начинать темы
Вы можете отвечать на сообщения
Вы не можете редактировать свои сообщения
Вы не можете удалять свои сообщения
Вы не можете голосовать в опросах
Вы не можете прикреплять файлы к сообщениям
Вы можете скачивать файлы