(Classical, Orchestral) Mauro Giuliani - Concertos for Guitar and Orchestra Nos. 1-2 - Edoardo Catemario - Wiener Akademie, cond. Martin Haselbock - 2004, FLAC (tracks+.cue) lossless


Статистика раздачи [Обновить пиров]
Размер:  259 MB   |    Зарегистрирован:  1 год 1 месяц   |    Скачан:  0 раз

Полного источника не было: Никогда

Личеров:  1  [  0 KB/s  ]   Подробная статистика пиров
 
   
 
 
 

[Цитировать]

Mauro Giuliani (1781-1829) - Concertos for Guitar and Orchestra Nos. 1-2 - Edoardo Catemario - Wiener Akademie, cond. Martin Haselbock
Жанр: Classical, Orchestral
Страна-производитель диска: Germany
Год издания диска: 2004
Издатель (лейбл): Arts Music
Номер по каталогу: 47688-2
Аудиокодек: FLAC
Тип рипа: tracks+.cue
Битрейт аудио: lossless
Продолжительность: 1:00:18
Источник: релизер
сайт-источник/ник/другое: duckjammy
Наличие сканов в содержимом раздачи: да
Треклист:
Guitar Concerto No. 1 in A major, Op. 30 (versions for guitar & orch; gt. & string quartet)
1. Allegro maestoso 15:51
2. Siciliana (Andantino) 6:10
3. Rondò alla Polacca (Allegretto) 8:38
Guitar Concerto No. 2 in A major, Op. 36 (versions for guitar & strings; gt. & string quartet)
4. Maestoso 13:57
5. Andantino 6:05
6. Rondò (Allegretto) 9:34
Исполнители:
Edoardo Catemario - guitar, Martin Haselböck - Conductor, Wiener Akademie Orchester

Лог создания рипа

Exact Audio Copy V1.0 beta 3 from 29. August 2011
EAC extraction logfile from 30. May 2015, 14:56
Edoardo Catemario / Giuliani - Concertos for Guitar and Orchestra Nos. 1-2
Used drive : TSSTcorpCDDVDW SE-208DB Adapter: 1 ID: 0
Read mode : SecureUtilize accurate stream : YesDefeat audio cache : YesMake use of C2 pointers : No
Read offset correction : 6Overread into Lead-In and Lead-Out : NoFill up missing offset samples with silence : YesDelete leading and trailing silent blocks : NoNull samples used in CRC calculations : YesUsed interface : Native Win32 interface for Win NT & 2000Gap handling : Appended to previous track
Used output format : User Defined EncoderSelected bitrate : 1024 kBit/sQuality : HighAdd ID3 tag : NoCommand line compressor : C:\Program Files (x86)\Exact Audio Copy\FLAC\FLAC.EXEAdditional command line options : -8 -V -T "ARTIST=%artist%" -T "TITLE=%title%" -T "ALBUM=%albumtitle%" -T "DATE=%year%" -T "TRACKNUMBER=%tracknr%" -T "GENRE=%genre%" -T "PERFORMER=%albuminterpret%" -T "COMPOSER=%composer%" %haslyrics%--tag-from-file=LYRICS="%lyricsfile%"%haslyrics% -T "ALBUMARTIST=%albumartist%" -T "DISCNUMBER=%cdnumber%" -T "TOTALDISCS=%totalcds%" -T "TOTALTRACKS=%numduckjammytracks%" -T "COMMENT=%comment%" %source% -o %dest%
TOC of the extracted CD
Track | Start | Length | Start sector | End sector --------------------------------------------------------- 1 | 0:00.00 | 15:51.33 | 0 | 71357 2 | 15:51.33 | 6:10.37 | 71358 | 99144 3 | 22:01.70 | 8:38.68 | 99145 | 138062 4 | 30:40.63 | 13:57.54 | 138063 | 200891 5 | 44:38.42 | 6:05.00 | 200892 | 228266 6 | 50:43.42 | 9:34.33 | 228267 | 271349
Track 1
Filename C:\E\01 - Concerto for Guitar and Orchestra No.1 in A Major op.30 I - Allegro maestoso.wav
Pre-gap length 0:00:02.00
Peak level 69.0 % Extraction speed 3.4 X Track quality 100.0 % Test CRC C80CD5B7 Copy CRC C80CD5B7 Accurately ripped (confidence 5) [3B014AAA] (AR v2) Copy OK
Track 2
Filename C:\E\02 - Concerto for Guitar and Orchestra No.1 in A Major op.30 II - Siciliana (Andantino).wav
Pre-gap length 0:00:02.37
Peak level 36.1 % Extraction speed 3.1 X Track quality 99.9 % Test CRC F83C76C5 Copy CRC F83C76C5 Accurately ripped (confidence 5) [4A807C62] (AR v2) Copy OK
Track 3
Filename C:\E\03 - Concerto for Guitar and Orchestra No.1 in A Major op.30 III - Rondo alla Polacca (Allegretto).wav
Pre-gap length 0:00:02.26
Peak level 99.8 % Extraction speed 3.7 X Track quality 99.9 % Test CRC BA060A18 Copy CRC BA060A18 Accurately ripped (confidence 5) [B1711EC2] (AR v2) Copy OK
Track 4
Filename C:\E\04 - Concerto for Guitar and Orchestra No.2 in A Major op.36 I - Maestoso.wav
Pre-gap length 0:00:07.68
Peak level 100.0 % Extraction speed 4.6 X Track quality 100.0 % Test CRC 8C8868BF Copy CRC 8C8868BF Accurately ripped (confidence 4) [06A05789] (AR v2) Copy OK
Track 5
Filename C:\E\05 - Concerto for Guitar and Orchestra No.2 in A Major op.36 II - Andantino.wav
Pre-gap length 0:00:01.49
Peak level 67.5 % Extraction speed 4.5 X Track quality 100.0 % Test CRC 38BC459F Copy CRC 38BC459F Accurately ripped (confidence 5) [A1401A47] (AR v2) Copy OK
Track 6
Filename C:\E\06 - Concerto for Guitar and Orchestra No.2 in A Major op.36 III - Rondo (Allegretto).wav
Peak level 99.8 % Extraction speed 5.2 X Track quality 100.0 % Test CRC C9C41A47 Copy CRC C9C41A47 Accurately ripped (confidence 5) [EF4A5E8F] (AR v2) Copy OK
All tracks accurately ripped
No errors occurred
End of status report
==== Log checksum 04A902A26E0915776ABAB94AF77132DFB6B38D6BE184426A4E506AD87B8B52AE ====

Содержание индексной карты (.CUE)

REM GENRE ClassicalREM DATE 2004REM DISCID 470E2206REM COMMENT ExactAudioCopy v1.0b3PERFORMER "Edoardo Catemario"TITLE "Giuliani - Concertos for Guitar and Orchestra Nos. 1-2"FILE "01 - Concerto for Guitar and Orchestra No.1 in A Major op.30 I - Allegro maestoso.flac" WAVE TRACK 01 AUDIO TITLE "Concerto for Guitar and Orchestra No.1 in A Major op.30 I - Allegro maestoso" PERFORMER "Edoardo Catemario" ISRC GBCRW0468801 INDEX 01 00:00:00FILE "02 - Concerto for Guitar and Orchestra No.1 in A Major op.30 II - Siciliana (Andantino).flac" WAVE TRACK 02 AUDIO TITLE "Concerto for Guitar and Orchestra No.1 in A Major op.30 II - Siciliana (Anda..." PERFORMER "Edoardo Catemario" ISRC GBCRW0468802 INDEX 01 00:00:00FILE "03 - Concerto for Guitar and Orchestra No.1 in A Major op.30 III - Rondo alla Polacca (Allegretto).flac" WAVE TRACK 03 AUDIO TITLE "Concerto for Guitar and Orchestra No.1 in A Major op.30 III - Rondo alla Pol..." PERFORMER "Edoardo Catemario" ISRC GBCRW0468803 INDEX 01 00:00:00FILE "04 - Concerto for Guitar and Orchestra No.2 in A Major op.36 I - Maestoso.flac" WAVE TRACK 04 AUDIO TITLE "Concerto for Guitar and Orchestra No.2 in A Major op.36 I - Maestoso" PERFORMER "Edoardo Catemario" ISRC GBCRW0468804 INDEX 01 00:00:00FILE "05 - Concerto for Guitar and Orchestra No.2 in A Major op.36 II - Andantino.flac" WAVE TRACK 05 AUDIO TITLE "Concerto for Guitar and Orchestra No.2 in A Major op.36 II - Andantino" PERFORMER "Edoardo Catemario" ISRC GBCRW0468805 INDEX 01 00:00:00FILE "06 - Concerto for Guitar and Orchestra No.2 in A Major op.36 III - Rondo (Allegretto).flac" WAVE TRACK 06 AUDIO TITLE "Concerto for Guitar and Orchestra No.2 in A Major op.36 III - Rondo (Allegre..." PERFORMER "Edoardo Catemario" ISRC GBCRW0468806 INDEX 01 00:00:00
[teatrix.ru].t9670.torrent 
Торрент: Зарегистрирован [ 2015-10-23 17:11 ] · 48D32354B944E390C9BE7A313629F4C1C039D4E3

Скачать .torrent

Скачать

13 KB

Статус: проверено
Скачан: 0 раз
Размер: 259 MB
terms.php



Быстрый ответ

Имя:

      
Для отправки сообщений необходимо включить JavaScript
Показать сообщения:    

Текущее время: 09-Дек 01:09

Часовой пояс: UTC + 3


Вы можете начинать темы
Вы можете отвечать на сообщения
Вы не можете редактировать свои сообщения
Вы не можете удалять свои сообщения
Вы не можете голосовать в опросах
Вы не можете прикреплять файлы к сообщениям
Вы можете скачивать файлы