(Classical, Concerto) Глазунов, Кабалевский - Violin Concerto, Чайковский - Souvenir d'un lieu cher, Op. 42, Valse-Scherzo, Op. 34 (Gil Shaham, violin, RNO, Mikhail Pletnev / Михаил Плетнёв) - 1997, FLAC (image+.cue), lossless


Статистика раздачи [Обновить пиров]
Размер:  268 MB   |    Зарегистрирован:  1 год 1 месяц   |    Скачан:  1 раз

Полного источника не было: 7 месяцев 28 дней

Личеров:  4  [  0 KB/s  ]   Подробная статистика пиров
 
   
 
 
 

[Цитировать]

Glazunov, Kabalevsky - Violin Concertos - Shaham, Pletnev
Жанр: Classical, Concerto
Страна-производитель диска: Germany
Год издания диска: 1997
Издатель (лейбл): Deutsche Grammophon
Номер по каталогу: 457 064-2
Дата записи: 12/1996
Аудиокодек: FLAC
Тип рипа: image+.cue
Битрейт аудио: lossless
Продолжительность: 61.58
Источник: собственный рип
Наличие сканов в содержимом раздачи: да
Исполнители: Gil Shaham, violin, Russian National Orchestra, Mikhail Pletnev

Треклист:

Alexander Glazunov: Concerto for Violin and Orchestra in A minor, Op. 82
01. I. Moderato
02. II. Andante sostenuto - Tempo I
03. III. Allegro maestoso
Дмитрий Кабалевский: Concerto for Violin and Orchestra in C major, Op. 48
04. I. Allegro molto e con brio
05. II. Andantino cantabile
06. III. Vivace giocoso
Pyotr Tchaikovsky: Souvenir d'un lieu cher, Op. 42
07. I. Meditation. Andante molto cantabile
08. II. Scherzo. Presto giocoso
09. III. Melodie. Moderato con moto
Pyotr Tchaikovsky: Valse-Scherzo, Op. 34
10. Allegro (Tempo di valse)
Total 61.58

Лог создания рипа:

Exact Audio Copy V1.0 beta 3 from 29. August 2011
Отчёт EAC об извлечении, выполненном 29. мая 2015, 12:51
Gil Shaham & Mikhail Pletnev / Glazunov & Kabalevsky - Violin Concertos etc.
Дисковод: Optiarc DVD RW AD-7260S Adapter: 0 ID: 1
Режим чтения : ДостоверностьИспользование точного потока : ДаОтключение кэша аудио : ДаИспользование указателей C2 : Нет
Коррекция смещения при чтении : 48Способность читать области Lead-in и Lead-out : НетЗаполнение пропущенных сэмплов тишиной : ДаУдаление блоков с тишиной в начале и конце : НетПри вычислениях CRC использовались нулевые сэмплы : ДаИнтерфейс : Встроенный Win32-интерфейс для Win NT/2000
Выходной формат : Пользовательский кодировщикВыбранный битрейт : 896 kBit/sКачество : ВысокийДобавление ID3-тега : НетУтилита сжатия : C:\Program Files\FLAC Frontend\tools\flac.exeДополнительные параметры : -V -8 -T "Date=%year%" -T "Genre=%genre%" %source%
TOC извлечённого CD
Трек | Старт | Длительность | Начальный сектор | Конечный сектор --------------------------------------------------------------------- 1 | 0:00.32 | 4:22.00 | 32 | 19681 2 | 4:22.32 | 10:03.05 | 19682 | 64911 3 | 14:25.37 | 5:54.70 | 64912 | 91531 4 | 20:20.32 | 4:07.00 | 91532 | 110056 5 | 24:27.32 | 4:59.00 | 110057 | 132481 6 | 29:26.32 | 5:34.00 | 132482 | 157531 7 | 35:00.32 | 10:10.00 | 157532 | 203281 8 | 45:10.32 | 4:03.00 | 203282 | 221506 9 | 49:13.32 | 3:43.00 | 221507 | 238231 10 | 52:56.32 | 9:02.00 | 238232 | 278881
Характеристики диапазона извлечения и сообщения об ошибках
Выбранный диапазон
Имя файла D:\EAC\Мои раздачи\Glazunov, Kabalevsky - Violin Concertos ect. - Shaham, Pletnev\Gil Shaham & Mikhail Pletnev - Glazunov & Kabalevsky - Violin Concertos etc..wav
Пиковый уровень 99.9 % Скорость извлечения 4.2 X Качество диапазона 99.9 % CRC теста CEE0B841 CRC копии CEE0B841 Копирование... OK
Ошибок не произошло
AccurateRip: сводка
Трек 1 : извлечено точно (доверие 17) [93665A47] (AR v2)Трек 2 : извлечено точно (доверие 17) [7177DDA2] (AR v2)Трек 3 : извлечено точно (доверие 17) [1533BC24] (AR v2)Трек 4 : извлечено точно (доверие 16) [1EB2FDC6] (AR v2)Трек 5 : извлечено точно (доверие 16) [57A4BEB6] (AR v2)Трек 6 : извлечено точно (доверие 16) [D5B15223] (AR v2)Трек 7 : извлечено точно (доверие 17) [57FBAA59] (AR v2)Трек 8 : извлечено точно (доверие 17) [845A066D] (AR v2)Трек 9 : извлечено точно (доверие 17) [478FCAF6] (AR v2)Трек 10 : извлечено точно (доверие 16) [3780DB9C] (AR v2)
Все треки извлечены точно
Конец отчёта
==== Контрольная сумма отчёта 85DA2CCCD96EEC7AD29201DA0BA33A8011B1E37C6076165A9AC9A36CC404ADD2 ====
[teatrix.ru].t9671.torrent 
Торрент: Зарегистрирован [ 2015-10-23 17:11 ] · 269193075ACF57A5B9ABB7BA690C2ADE12FBDB1B

Скачать .torrent

Скачать

12 KB

Статус: проверено
Скачан: 1 раз
Размер: 268 MB
terms.php



Быстрый ответ

Имя:

      
Для отправки сообщений необходимо включить JavaScript
Показать сообщения:    

Текущее время: 03-Дек 16:45

Часовой пояс: UTC + 3


Вы можете начинать темы
Вы можете отвечать на сообщения
Вы не можете редактировать свои сообщения
Вы не можете удалять свои сообщения
Вы не можете голосовать в опросах
Вы не можете прикреплять файлы к сообщениям
Вы можете скачивать файлы